磁力链接吧

 找回密码
 立即注册
搜索

像素大战[3D左右]Pixels.2015.1080p.3D.BluRay.Half-SBS.x264.DTS-HD.MA.7.1-RARBG 19 ...

[复制链接]
电影首发 发表于 2015-10-14 09:16:00 | 显示全部楼层 |阅读模式
自带中字

译  名 像素大战/世界大对战(台)/屈机起格命(港)/像素入侵/天煞:像素之战/像素
片  名 Pixels
年  代 2015
国  家 美国/中国大陆/加拿大
类  别 喜剧/动作/科幻
语  言 英语/印地语/日语
上映日期 2015-07-24(美国)/2015-09-15(中国大陆)
IMDb评分  5.6/10 from 36,786 users
IMDb链接  http://www.imdb.com/title/tt2120120/
豆瓣评分 6.3/10 from 22,626 users
豆瓣链接 http://movie.douban.com/subject/25838463/
片  长 106分钟
导  演 克里斯·哥伦布 Chris Columbus
主  演 亚当·桑德勒 Adam Sandler
      凯文·詹姆斯 Kevin James
      米歇尔·莫纳汉 Michelle Monaghan
      彼特·丁克拉奇 Peter Dinklage
      乔什·加德 Josh Gad
      布莱恩·考克斯 Brian Cox
      马特·林茨 Matt Lintz
      肖恩·宾 Sean Bean
      简·科拉克斯基 Jane Krakowski
      丹·艾克罗伊德 Dan Aykroyd
      艾菲恩·克洛科特 Affion Crockett
      莱妮·卡赞 Lainie Kazan
      艾什莉·本森 Ashley Benson
      玛莎·斯图尔特 Martha Stewart
      丹尼斯·秋山 Denis Akiyama
      托马斯·麦卡锡 Thomas McCarthy
      提姆·赫利希 Tim Herlihy
      杰姬·桑德勒 Jackie Sandler
      杰瑞德·桑德勒 Jared Sandler
      威廉·S·泰勒 William S. Taylor
      罗丝·洛林斯 Rose Rollins
      塔克·斯莫尔伍德 Tucker Smallwood
      塞蕾娜·威廉姆斯 Serena Williams
      艾伦·卡瓦特 Allen Covert


简  介


  21世纪某天,神秘外星人突然入侵地球。奇怪的是外星人全部以20世纪80年代所流行的像素电子游戏形象出现,凡是被它们碰过的物体、人类无一例外都被像素化。现任美国总统威尔·库珀(凯文·詹姆斯 Kevin James 饰)深感事态严重,连忙电话叫来的当年极为擅长街机游戏的玩伴山姆·布伦纳(亚当·桑德勒 Adam Sandler 饰)。在另一个怪鸡朋友勒德洛·莱门梢夫(乔什·加德 Josh Gad 饰)的指点下,他们似乎明白了外星人的真身。入侵接二连三袭来,这群大男孩找来曾经的死对头埃迪·普兰特(彼特·丁克拉奇 Peter Dinklage 饰),联合与伪装成游戏的外星人们展开3D像素大作战。
  地球危在旦夕,这可真不是能让人轻松以对的游戏……


获奖情况


  第17届美国青少年选择奖 (2015)
  最佳暑期电影男演员(提名) 亚当·桑德勒



  • Video
  • ID                                       : 1
  • Format                                   : AVC
  • Format/Info                              : Advanced Video Codec
  • Format profile                           : [email protected]
  • Format settings, CABAC                   : Yes
  • Format settings, ReFrames                : 2 frames
  • Codec ID                                 : V_MPEG4/ISO/AVC
  • Duration                                 : 1h 45mn
  • Nominal bit rate                         : 15.5 Mbps
  • Width                                    : 1 920 pixels
  • Height                                   : 1 080 pixels
  • Display aspect ratio                     : 16:9
  • Frame rate mode                          : Constant
  • Frame rate                               : 23.976 fps
  • Color space                              : YUV
  • Chroma subsampling                       : 4:2:0
  • Bit depth                                : 8 bits
  • Scan type                                : Progressive
  • Bits/(Pixel*Frame)                       : 0.312
  • Title                                    : Pixels.2015.1080p.3D.BluRay.Half-SBS.x264.DTS-HD.MA.7.1-RARBG
  • Writing library                          : x264 core 142
  • Encoding settings                        : cabac=1 / ref=1 / deblock=1:-1:-1 / analyse=0x3:0 / me=hex / subme=5 / psy=0 / mixed_ref=0 / me_range=16 / chroma_me=1 / trellis=0 / 8x8dct=1 / cqm=0 / deadzone=21,11 / fast_pskip=1 / chroma_qp_offset=0 / threads=8 / lookahead_threads=2 / sliced_threads=0 / nr=0 / decimate=1 / interlaced=0 / bluray_compat=0 / constrained_intra=0 / bframes=2 / b_pyramid=0 / b_adapt=1 / b_bias=0 / direct=1 / weightb=1 / open_gop=0 / weightp=0 / keyint=24 / keyint_min=13 / scenecut=40 / intra_refresh=0 / rc=abr / mbtree=0 / bitrate=15500 / ratetol=1.0 / qcomp=0.60 / qpmin=0 / qpmax=69 / qpstep=4 / ip_ratio=1.40 / pb_ratio=1.30 / aq=1:1.00
  • Language                                 : English
  • Default                                  : Yes
  • Forced                                   : No
  • Color range                              : Limited
  • Color primaries                          : BT.709
  • Transfer characteristics                 : BT.709
  • Matrix coefficients                      : BT.709


  • Audio #1
  • ID                                       : 2
  • Format                                   : DTS
  • Format/Info                              : Digital Theater Systems
  • Format profile                           : MA / Core
  • Mode                                     : 16
  • Format settings, Endianness              : Big
  • Codec ID                                 : A_DTS
  • Duration                                 : 1h 45mn
  • Bit rate mode                            : Variable
  • Bit rate                                 : 6348 / 1 509 Kbps
  • Channel(s)                               : 8 channels / 6 channels
  • Channel positions                        : Front: L C R, Side: L R, Back: L R, LFE / Front: L C R, Side: L R, LFE
  • Sampling rate                            : 48.0 KHz
  • Bit depth                                : 24 bits
  • Compression mode                         : Lossless / Lossy
  • Title                                    : Pixels.2015.1080p.3D.BluRay.Half-SBS.x264.DTS-HD.MA.7.1-RARBG
  • Language                                 : English
  • Default                                  : Yes
  • Forced                                   : No


  • Audio #2
  • ID                                       : 3
  • Format                                   : DTS
  • Format/Info                              : Digital Theater Systems
  • Mode                                     : 16
  • Format settings, Endianness              : Big
  • Codec ID                                 : A_DTS
  • Duration                                 : 1h 45mn
  • Bit rate mode                            : Constant
  • Bit rate                                 : 1 509 Kbps
  • Channel(s)                               : 6 channels
  • Channel positions                        : Front: L C R, Side: L R, LFE
  • Sampling rate                            : 48.0 KHz
  • Bit depth                                : 16 bits
  • Compression mode                         : Lossy
  • Stream size                              : 1.12 GiB (6%)
  • Title                                    : Pixels.2015.1080p.3D.BluRay.Half-SBS.x264.DTS-HD.MA.7.1-RARBG
  • Language                                 : English
  • Default                                  : No
  • Forced                                   : No


  • Audio #3
  • ID                                       : 4
  • Format                                   : AC-3
  • Format/Info                              : Audio Coding 3
  • Format profile                           : Dolby Digital
  • Mode extension                           : CM (complete main)
  • Format settings, Endianness              : Big
  • Codec ID                                 : A_AC3
  • Duration                                 : 1h 45mn
  • Bit rate mode                            : Constant
  • Bit rate                                 : 192 Kbps
  • Channel(s)                               : 2 channels
  • Channel positions                        : Front: L R
  • Sampling rate                            : 48.0 KHz
  • Compression mode                         : Lossy
  • Stream size                              : 145 MiB (1%)
  • Title                                    : Pixels.2015.1080p.3D.BluRay.Half-SBS.x264.DTS-HD.MA.7.1-RARBG
  • Language                                 : English
  • Default                                  : No
  • Forced                                   : No


  • Audio #4
  • ID                                       : 5
  • Format                                   : AC-3
  • Format/Info                              : Audio Coding 3
  • Mode extension                           : CM (complete main)
  • Format settings, Endianness              : Big
  • Codec ID                                 : A_AC3
  • Duration                                 : 1h 45mn
  • Bit rate mode                            : Constant
  • Bit rate                                 : 640 Kbps
  • Channel(s)                               : 6 channels
  • Channel positions                        : Front: L C R, Side: L R, LFE
  • Sampling rate                            : 48.0 KHz
  • Compression mode                         : Lossy
  • Stream size                              : 484 MiB (2%)
  • Title                                    : Pixels.2015.1080p.3D.BluRay.Half-SBS.x264.DTS-HD.MA.7.1-RARBG
  • Language                                 : French
  • Default                                  : No
  • Forced                                   : No


  • Audio #5
  • ID                                       : 6
  • Format                                   : DTS
  • Format/Info                              : Digital Theater Systems
  • Format profile                           : MA / Core
  • Mode                                     : 16
  • Format settings, Endianness              : Big
  • Codec ID                                 : A_DTS
  • Duration                                 : 1h 45mn
  • Bit rate mode                            : Variable
  • Bit rate                                 : Unknown / 1 509 Kbps
  • Channel(s)                               : 6 channels
  • Channel positions                        : Front: L C R, Side: L R, LFE
  • Sampling rate                            : 48.0 KHz
  • Bit depth                                : 16 bits
  • Compression mode                         : Lossless / Lossy
  • Title                                    : Pixels.2015.1080p.3D.BluRay.Half-SBS.x264.DTS-HD.MA.7.1-RARBG
  • Language                                 : Portuguese
  • Default                                  : No
  • Forced                                   : No


  • Audio #6
  • ID                                       : 7
  • Format                                   : DTS
  • Format/Info                              : Digital Theater Systems
  • Mode                                     : 16
  • Format settings, Endianness              : Big
  • Codec ID                                 : A_DTS
  • Duration                                 : 1h 45mn
  • Bit rate mode                            : Constant
  • Bit rate                                 : 1 509 Kbps
  • Channel(s)                               : 6 channels
  • Channel positions                        : Front: L C R, Side: L R, LFE
  • Sampling rate                            : 48.0 KHz
  • Bit depth                                : 16 bits
  • Compression mode                         : Lossy
  • Stream size                              : 1.12 GiB (6%)
  • Title                                    : Pixels.2015.1080p.3D.BluRay.Half-SBS.x264.DTS-HD.MA.7.1-RARBG
  • Language                                 : Portuguese
  • Default                                  : No
  • Forced                                   : No


  • Audio #7
  • ID                                       : 8
  • Format                                   : AC-3
  • Format/Info                              : Audio Coding 3
  • Mode extension                           : CM (complete main)
  • Format settings, Endianness              : Big
  • Codec ID                                 : A_AC3
  • Duration                                 : 1h 45mn
  • Bit rate mode                            : Constant
  • Bit rate                                 : 640 Kbps
  • Channel(s)                               : 6 channels
  • Channel positions                        : Front: L C R, Side: L R, LFE
  • Sampling rate                            : 48.0 KHz
  • Compression mode                         : Lossy
  • Stream size                              : 484 MiB (2%)
  • Title                                    : Pixels.2015.1080p.3D.BluRay.Half-SBS.x264.DTS-HD.MA.7.1-RARBG
  • Language                                 : Spanish
  • Default                                  : No
  • Forced                                   : No


  • Audio #8
  • ID                                       : 9
  • Format                                   : AC-3
  • Format/Info                              : Audio Coding 3
  • Mode extension                           : CM (complete main)
  • Format settings, Endianness              : Big
  • Codec ID                                 : A_AC3
  • Duration                                 : 1h 45mn
  • Bit rate mode                            : Constant
  • Bit rate                                 : 640 Kbps
  • Channel(s)                               : 6 channels
  • Channel positions                        : Front: L C R, Side: L R, LFE
  • Sampling rate                            : 48.0 KHz
  • Compression mode                         : Lossy
  • Stream size                              : 484 MiB (2%)
  • Title                                    : Pixels.2015.1080p.3D.BluRay.Half-SBS.x264.DTS-HD.MA.7.1-RARBG
  • Language                                 : Thai
  • Default                                  : No
  • Forced                                   : No


  • Text #1
  • ID                                       : 10
  • Format                                   : PGS
  • Muxing mode                              : zlib
  • Codec ID                                 : S_HDMV/PGS
  • Codec ID/Info                            : Picture based subtitle format used on BDs/HD-DVDs
  • Language                                 : English
  • Default                                  : No
  • Forced                                   : No


  • Text #2
  • ID                                       : 11
  • Format                                   : PGS
  • Muxing mode                              : zlib
  • Codec ID                                 : S_HDMV/PGS
  • Codec ID/Info                            : Picture based subtitle format used on BDs/HD-DVDs
  • Language                                 : English
  • Default                                  : No
  • Forced                                   : No


  • Text #3
  • ID                                       : 12
  • Format                                   : PGS
  • Muxing mode                              : zlib
  • Codec ID                                 : S_HDMV/PGS
  • Codec ID/Info                            : Picture based subtitle format used on BDs/HD-DVDs
  • Language                                 : Chinese
  • Default                                  : No
  • Forced                                   : No


  • Text #4
  • ID                                       : 13
  • Format                                   : PGS
  • Muxing mode                              : zlib
  • Codec ID                                 : S_HDMV/PGS
  • Codec ID/Info                            : Picture based subtitle format used on BDs/HD-DVDs
  • Language                                 : French
  • Default                                  : No
  • Forced                                   : No


  • Text #5
  • ID                                       : 14
  • Format                                   : PGS
  • Muxing mode                              : zlib
  • Codec ID                                 : S_HDMV/PGS
  • Codec ID/Info                            : Picture based subtitle format used on BDs/HD-DVDs
  • Language                                 : Indonesian
  • Default                                  : No
  • Forced                                   : No


  • Text #6
  • ID                                       : 15
  • Format                                   : PGS
  • Muxing mode                              : zlib
  • Codec ID                                 : S_HDMV/PGS
  • Codec ID/Info                            : Picture based subtitle format used on BDs/HD-DVDs
  • Language                                 : Korean
  • Default                                  : No
  • Forced                                   : No


  • Text #7
  • ID                                       : 16
  • Format                                   : PGS
  • Muxing mode                              : zlib
  • Codec ID                                 : S_HDMV/PGS
  • Codec ID/Info                            : Picture based subtitle format used on BDs/HD-DVDs
  • Language                                 : Portuguese
  • Default                                  : No
  • Forced                                   : No


  • Text #8
  • ID                                       : 17
  • Format                                   : PGS
  • Muxing mode                              : zlib
  • Codec ID                                 : S_HDMV/PGS
  • Codec ID/Info                            : Picture based subtitle format used on BDs/HD-DVDs
  • Language                                 : Spanish
  • Default                                  : No
  • Forced                                   : No


  • Text #9
  • ID                                       : 18
  • Format                                   : PGS
  • Muxing mode                              : zlib
  • Codec ID                                 : S_HDMV/PGS
  • Codec ID/Info                            : Picture based subtitle format used on BDs/HD-DVDs
  • Language                                 : Thai
  • Default                                  : No
  • Forced                                   : No


  • Text #10
  • ID                                       : 19
  • Format                                   : PGS
  • Muxing mode                              : zlib
  • Codec ID                                 : S_HDMV/PGS
  • Codec ID/Info                            : Picture based subtitle format used on BDs/HD-DVDs
  • Language                                 : French
  • Default                                  : No
  • Forced                                   : No


  • Menu
  • 00:00:00.000                             : en01)00:00:00:000
  • 00:04:54.043                             : en02)00:04:54:043
  • 00:10:21.662                             : en03)00:10:21:662
  • 00:14:51.765                             : en04)00:14:51:765
  • 00:19:51.815                             : en05)00:19:51:815
  • 00:26:19.869                             : en06)00:26:19:869
  • 00:32:57.809                             : en07)00:32:57:809
  • 00:40:35.474                             : en000:40:35:474
  • 00:47:40.482                             : en09)00:47:40:482
  • 00:52:33.275                             : en10)00:52:33:275
  • 00:58:56.074                             : en11)00:58:56:074
  • 01:05:07.695                             : en12)01:05:07:695
  • 01:09:23.075                             : en13)01:09:23:075
  • 01:18:13.021                             : en14)01:18:13:021
  • 01:27:54.185                             : en15)01:27:54:185
  • 01:33:53.002                             : en16)01:33:53:002





                                                                                                                                                                                                       

                                                                                                                       
                                                                                                                                                                                                                                                        Pixels.2015.1080p.3D.BluRay.Half-SBS.x264.DTS-HD.MA.7.1-RARBG.torrent (100.64 KB, 下载次数: 11892)

回复

使用道具 举报

小黑屋|磁力链接吧 |网站地图

本网站所有资源来自网络,如无意中侵犯了您的权益,请发邮件至 [email protected],立即清除相关链接

GMT+8, 2020-6-7 19:00 , Processed in 0.069475 second(s), 23 queries .

Powered by Discuz! X3.2

© 2001-2013 Comsenz Inc.

快速回复 返回顶部 返回列表