磁力链接吧

 找回密码
 立即注册
搜索

[剧情片] 日与夜/日日夜夜 Days.and.Nights.2013.1080p.BluRay.x264.DTS-RARBG 7.47GB

[复制链接]
电影首发 发表于 2015-7-5 09:54:00 | 显示全部楼层 |阅读模式

译  名 日与夜/日日夜夜/白天与黑夜
片  名 Days and Nights
年  代 2014
国  家 美国
类  别 剧情
语  言 英语
上映日期 2014-09-26
片  长 92分钟
导  演 克里斯蒂安·卡玛戈 Christian Camargo
主  演 凯蒂·霍尔姆斯 Katie Holmes
      威廉·赫特 William Hurt
      艾莉森·珍妮 Allison Janney
      本·卫肖 Ben Whishaw
      让·雷诺 Jean Reno
      切莉·琼斯 Cherry Jones
      拉塞尔·敏斯 Russell Means
      马克·里朗斯 Mark Rylance
      迈克尔·恩奎斯特 Michael Nyqvist
      克里斯蒂安·卡玛戈 Christian Camargo


简  介


  Reckless desire wreaks havoc over Memorial Day weekend as a family confronts the volatile and fragile nature of love. A modern retellin g of Anton Chekhov's "The Seagull", set in rural New England.
  *Meryl Streep has played the role of Irina on Broadway but Cherry Jones was cast for this movie. Interestingly, Jones originated the role of Sister Aloysious in Doubt on Broadway, but Streep was chosen to play her on screen.



  • Video
  • ID                                       : 1
  • Format                                   : AVC
  • Format/Info                              : Advanced Video Codec
  • Format profile                           : [email protected]
  • Format settings, CABAC                   : Yes
  • Format settings, ReFrames                : 4 frames
  • Codec ID                                 : V_MPEG4/ISO/AVC
  • Duration                                 : 1h 31mn
  • Bit rate                                 : 10.7 Mbps
  • Nominal bit rate                         : 11.5 Mbps
  • Width                                    : 1 920 pixels
  • Height                                   : 1 036 pixels
  • Display aspect ratio                     : 1.85:1
  • Frame rate mode                          : Constant
  • Frame rate                               : 23.976 fps
  • Color space                              : YUV
  • Chroma subsampling                       : 4:2:0
  • Bit depth                                : 8 bits
  • Scan type                                : Progressive
  • Bits/(Pixel*Frame)                       : 0.225
  • Stream size                              : 6.83 GiB (91%)
  • Title                                    : Days.and.Nights.2013.1080p.BluRay.x264.DTS-RARBG
  • Writing library                          : x264 core 144 r96 40bb568
  • Encoding settings                        : cabac=1 / ref=4 / deblock=1:-2:-2 / analyse=0x3:0x113 / me=umh / subme=7 / psy=1 / psy_rd=1.00:0.15 / mixed_ref=1 / me_range=16 / chroma_me=1 / trellis=1 / 8x8dct=1 / cqm=0 / deadzone=21,11 / fast_pskip=1 / chroma_qp_offset=-3 / threads=12 / lookahead_threads=3 / sliced_threads=0 / nr=0 / decimate=1 / interlaced=0 / bluray_compat=0 / constrained_intra=0 / bframes=3 / b_pyramid=2 / b_adapt=2 / b_bias=0 / direct=3 / weightb=1 / open_gop=0 / weightp=2 / keyint=250 / keyint_min=25 / scenecut=40 / intra_refresh=0 / rc_lookahead=50 / rc=abr / mbtree=1 / bitrate=11500 / ratetol=1.0 / qcomp=0.60 / qpmin=0 / qpmax=69 / qpstep=4 / vbv_maxrate=31250 / vbv_bufsize=31250 / nal_hrd=none / filler=0 / ip_ratio=1.40 / aq=1:1.00
  • Language                                 : English
  • Default                                  : Yes
  • Forced                                   : No


  • Audio
  • ID                                       : 2
  • Format                                   : DTS
  • Format/Info                              : Digital Theater Systems
  • Mode                                     : 16
  • Format settings, Endianness              : Big
  • Codec ID                                 : A_DTS
  • Duration                                 : 1h 31mn
  • Bit rate mode                            : Constant
  • Bit rate                                 : 768 Kbps
  • Channel(s)                               : 6 channels
  • Channel positions                        : Front: L C R, Side: L R, LFE
  • Sampling rate                            : 48.0 KHz
  • Bit depth                                : 16 bits
  • Compression mode                         : Lossy
  • Stream size                              : 502 MiB (7%)
  • Title                                    : Days.and.Nights.2013.1080p.BluRay.x264.DTS-RARBG
  • Language                                 : English
  • Default                                  : Yes
  • Forced                                   : No


  • Menu
  • 00:00:00.000                             : en:Chapter 01
  • 00:01:30.507                             : en:Chapter 02
  • 00:10:22.038                             : en:Chapter 03
  • 00:21:51.768                             : en:Chapter 04
  • 00:31:45.778                             : en:Chapter 05
  • 00:38:42.611                             : en:Chapter 06
  • 00:45:02.700                             : en:Chapter 07
  • 00:52:06.456                             : en:Chapter 08
  • 00:59:58.386                             : en:Chapter 09
  • 01:09:39.550                             : en:Chapter 10
  • 01:19:58.543                             : en:Chapter 11
  • 01:25:55.650                             : en:Chapter 12








                                                                                                                                                                                                       

                                                                                                                       
                                                                                                                                                                                                                                                        Days.and.Nights.2013.1080p.BluRay.x264.DTS-RARBG.torrent (75.37 KB, 下载次数: 25)

回复

使用道具 举报

小黑屋|磁力链接吧 |网站地图

本网站所有资源来自网络,如无意中侵犯了您的权益,请发邮件至 [email protected],立即清除相关链接

GMT+8, 2019-10-21 02:12 , Processed in 0.311424 second(s), 27 queries .

Powered by Discuz! X3.2

© 2001-2013 Comsenz Inc.

快速回复 返回顶部 返回列表