磁力链接吧

 找回密码
 立即注册
搜索

作法自毙/满城风雨/正义的呼声 Boomerang.1947.1080p.BluRay.x264.DTS-FGT 6.56GB ... ...

[复制链接]
电影首发 发表于 2015-7-3 08:15:00 | 显示全部楼层 |阅读模式

译  名 作法自毙/满城风雨/正义的呼声
片  名 Boomerang!
年  代 1947
国  家 美国
类  别 犯罪/黑色电影/剧情
语  言 英语
上映日期 1947-03-05
片  长 88 分钟
导  演 Elia Kazan
主  演 Dana Andrews
      Jane Wyatt
      Lee J. Cobb


简  介


  美国现实主义电影大师伊莱亚·凯赞执导的经典黑色惊悚片。本片根据真实事实改编,讲述在一个安静的美国小镇康涅狄格,一名慈祥和蔼的教士在街角等候时遇害。小镇公民感到震惊,并要求警方付诸行动,严惩凶手。所有的目击者都指正,约翰·沃尔德伦——一名神经紧张的外乡人是杀手凶手。虽然约翰·沃尔德伦极力否认犯罪,没有人相信他。地方检察官亨利发现案情有疑点,在承受着巨大的政治压力下,他试图证明约翰·沃尔德伦的清白。


获奖情况


  第20届奥斯卡金像奖 (1948)
  最佳编剧(提名) 理查德·墨菲


  第2届戛纳电影节 (1947)
  主竞赛单元(提名) 伊利亚·卡赞


Video
ID                                       : 1
Format                                   : AVC
Format/Info                              : Advanced Video Codec
Format profile                           : [email protected]
Format settings, CABAC                   : Yes
Format settings, ReFrames                : 5 frames
Codec ID                                 : V_MPEG4/ISO/AVC
Duration                                 : 1h 28mn
Bit rate                                 : 9 153 Kbps
Width                                    : 1 488 pixels
Height                                   : 1 080 pixels
Display aspect ratio                     : 1.378
Frame rate mode                          : Constant
Frame rate                               : 23.976 fps
Color space                              : YUV
Chroma subsampling                       : 4:2:0
Bit depth                                : 8 bits
Scan type                                : Progressive
Bits/(Pixel*Frame)                       : 0.238
Stream size                              : 5.50 GiB (84%)
Writing library                          : x264 core 129 r2230 1cffe9f
Encoding settings                        : cabac=1 / ref=5 / deblock=1:0:0 / analyse=0x3:0x113 / me=umh / subme=8 / psy=1 / psy_rd=1.00:0.00 / mixed_ref=1 / me_range=16 / chroma_me=1 / trellis=1 / 8x8dct=1 / cqm=0 / deadzone=21,11 / fast_pskip=1 / chroma_qp_offset=-2 / threads=12 / lookahead_threads=2 / sliced_threads=0 / nr=0 / decimate=1 / interlaced=0 / bluray_compat=0 / constrained_intra=0 / bframes=3 / b_pyramid=2 / b_adapt=2 / b_bias=0 / direct=3 / weightb=1 / open_gop=0 / weightp=2 / keyint=240 / keyint_min=24 / scenecut=40 / intra_refresh=0 / rc_lookahead=50 / rc=2pass / mbtree=1 / bitrate=9153 / ratetol=1.0 / qcomp=0.60 / qpmin=0 / qpmax=69 / qpstep=4 / cplxblur=20.0 / qblur=0.5 / ip_ratio=1.40 / aq=1:1.00
Language                                 : English
Default                                  : Yes
Forced                                   : No

Audio
ID                                       : 2
Format                                   : DTS
Format/Info                              : Digital Theater Systems
Mode                                     : 16
Format settings, Endianness              : Big
Codec ID                                 : A_DTS
Duration                                 : 1h 28mn
Bit rate mode                            : Constant
Bit rate                                 : 1 509 Kbps
Channel(s)                               : 2 channels
Channel positions                        : Front: L R
Sampling rate                            : 48.0 KHz
Bit depth                                : 24 bits
Compression mode                         : Lossy
Delay relative to video                  : 11ms
Stream size                              : 950 MiB (14%)
Language                                 : English
Default                                  : Yes
Forced                                   : No

Text
ID                                       : 3
Format                                   : UTF-8
Codec ID                                 : S_TEXT/UTF8
Codec ID/Info                            : UTF-8 Plain Text
Language                                 : English
Default                                  : No
Forced                                   : No

Menu
00:00:00.000                             : en:00:00:00.000
00:01:20.497                             : en:00:01:20.497
00:04:35.567                             : en:00:04:35.567
00:08:28.133                             : en:00:08:28.133
00:12:53.773                             : en:00:12:53.773
00:14:55.186                             : en:00:14:55.186
00:16:55.848                             : en:00:16:55.848
00:21:35.711                             : en:00:21:35.711
00:24:15.871                             : en:00:24:15.871
00:28:05.684                             : en:00:28:05.684
00:33:36.640                             : en:00:33:36.640
00:39:20.775                             : en:00:39:20.775
00:45:02.325                             : en:00:45:02.325
00:48:54.765                             : en:00:48:54.765
00:54:30.392                             : en:00:54:30.392
00:58:54.948                             : en:00:58:54.948
01:04:41.127                             : en:01:04:41.127
01:07:30.046                             : en:01:07:30.046
01:11:38.377                             : en:01:11:38.377
01:13:31.282                             : en:01:13:31.282
01:17:30.229                             : en:01:17:30.229
01:19:34.853                             : en:01:19:34.853
01:25:04.933                             : en:01:25:04.933
01:26:49.204                             : en:01:26:49.204





                                                                                                                                                                                                       

                                                                                                                       
                                                                                                                                                                                                                                                        Boomerang.1947.1080p.BluRay.x264.DTS-FGT.torrent (66.18 KB, 下载次数: 78)

回复

使用道具 举报

小黑屋|磁力链接吧 |网站地图

本网站所有资源来自网络,如无意中侵犯了您的权益,请发邮件至 [email protected],立即清除相关链接

GMT+8, 2020-6-3 11:00 , Processed in 0.096223 second(s), 27 queries .

Powered by Discuz! X3.2

© 2001-2013 Comsenz Inc.

快速回复 返回顶部 返回列表