磁力链接吧

 找回密码
 立即注册
搜索

[剧情片] 拦截密码战/密码迷情/谜 Enigma.2001.1080p.BluRay.x264.DTS-FGT 6.73GB

[复制链接]
电影首发 发表于 2015-7-3 08:15:00 | 显示全部楼层 |阅读模式

译  名 拦截密码战/密码迷情/谜
片  名 Enigma
年  代 2001
国  家 美国/荷兰/英国/德国
类  别 剧情/悬疑/爱情/惊悚/战争
语  言 英语/德语
上映日期 2001-09-24
片  长 119 分钟
导  演 迈克尔·艾普特 Michael Apted
主  演 多格雷·斯科特 Dougray Scott
      凯特·温丝莱特 Kate Winslet
      萨弗蓉·布罗斯 Saffron Burrows
      杰瑞米·诺森 Jeremy Northam
      汤姆·霍兰德 Tom Hollander


简  介


  故事发生在二战期间的英国。汤姆·杰里科是一名出色的密码破译专家,他在布兰彻利公园密码破译中心工作,帮助盟军破解代号为“谜”的密码。在这里,他与一位女雇员,克莱尔·罗米利发生了一段短暂而炽烈的感情。克莱尔美丽动人,但却是个谜样的神秘女子,在她身上似乎隐藏着不少秘密。尽管如此,在破译中心她还是吸引了大批的追逐者,汤姆仅仅是其中的一个罢了。


  


  而对汤姆来说,自从5年前战争爆发他开始这份辛苦的工作以来,他就没有再享受过生活的乐趣和爱情的甜蜜,因而他很快就陷入了对克莱尔深深的迷恋中。不过,显然克莱尔并不投入,她不久就厌烦了,并提出分手另结新欢。汤姆顿时一蹶不振,工作时也心不在焉。这种沮丧和痛苦终于被傲慢的上司激发出来,他冲动地对上司大打出手。这一举动使他被调职,但不料一个月后,他竟然又被调回了中心。


  


  此时的布兰彻利公园正处于一片混乱中,面临着一场灾难性危机的考验。德军突然改变了密码系统,而更改的密码需要在短时间内破译。因为盟军正准备把一批重要的军需物资运往英国,在此之前必须查明德军是否会有袭击行动以及具体的地点和时间等一系列军事机密。而汤姆作为破译“谜”密码的专家,自然得参与到这项紧急任务中来。但是德军是如何知道他们的密码已经被破译了呢?显然,在布兰彻利公园有间谍。嫌疑马上落到了克莱尔身上,自德军的信息中断以后她就杳无音讯了。经过调查,发现的证据居然表明克莱尔已遭人谋杀。此时,怀疑的目光开始转向她的前任男友汤姆。汤姆的处境很不妙,他发现自己不仅被疑心为杀害克莱尔的凶手,甚至还有可能被当作叛徒。


  


  汤姆开始集中精力破译德军的新密码,他的助手正是克莱尔的室友,海斯特·沃利斯。与风情万种的克莱尔相反,海斯特是个单纯拘谨的女孩。时间十分紧迫,他们不但要抢在德军发动袭击前解开密码,还要揭开笼罩在克莱尔身上的重重迷雾。与此同时,一名政府的高级间谍,温格雷也在暗中关注他们的行动。他心里很清楚他们正在慢慢靠近一个惊人的秘密。果然,汤姆和海斯特逐渐发现在这桩事件背后存在一起重大的阴谋,直接牵涉到英国政府的高层。在此过程中,他们也开始相互吸引……


Video
ID                                       : 1
Format                                   : AVC
Format/Info                              : Advanced Video Codec
Format profile                           : [email protected]
Format settings, CABAC                   : Yes
Format settings, ReFrames                : 5 frames
Codec ID                                 : V_MPEG4/ISO/AVC
Duration                                 : 1h 58mn
Bit rate                                 : 6 433 Kbps
Width                                    : 1 920 pixels
Height                                   : 816 pixels
Display aspect ratio                     : 2.35:1
Frame rate mode                          : Constant
Frame rate                               : 23.976 fps
Color space                              : YUV
Chroma subsampling                       : 4:2:0
Bit depth                                : 8 bits
Scan type                                : Progressive
Bits/(Pixel*Frame)                       : 0.171
Stream size                              : 5.34 GiB (79%)
Writing library                          : x264 core 146 r2538 121396c
Encoding settings                        : cabac=1 / ref=5 / deblock=1:-3:-3 / analyse=0x3:0x113 / me=umh / subme=8 / psy=1 / psy_rd=1.00:0.15 / mixed_ref=1 / me_range=16 / chroma_me=1 / trellis=1 / 8x8dct=1 / cqm=0 / deadzone=21,11 / fast_pskip=0 / chroma_qp_offset=-3 / threads=18 / lookahead_threads=3 / sliced_threads=0 / nr=0 / decimate=1 / interlaced=0 / bluray_compat=0 / constrained_intra=0 / bframes=3 / b_pyramid=2 / b_adapt=2 / b_bias=0 / direct=3 / weightb=1 / open_gop=0 / weightp=2 / keyint=240 / keyint_min=24 / scenecut=40 / intra_refresh=0 / rc_lookahead=50 / rc=crf / mbtree=1 / crf=20.0 / qcomp=0.60 / qpmin=0 / qpmax=69 / qpstep=4 / ip_ratio=1.40 / aq=1:1.00
Language                                 : English
Default                                  : Yes
Forced                                   : No

Audio
ID                                       : 2
Format                                   : DTS
Format/Info                              : Digital Theater Systems
Mode                                     : 16
Format settings, Endianness              : Big
Codec ID                                 : A_DTS
Duration                                 : 1h 58mn
Bit rate mode                            : Constant
Bit rate                                 : 1 509 Kbps
Channel(s)                               : 6 channels
Channel positions                        : Front: L C R, Side: L R, LFE
Sampling rate                            : 48.0 KHz
Bit depth                                : 24 bits
Compression mode                         : Lossy
Stream size                              : 1.25 GiB (19%)
Language                                 : English
Default                                  : Yes
Forced                                   : No







                                                                                                                                                                                                       

                                                                                                                       
                                                                                                                                                                                                                                                        Enigma.2001.1080p.BluRay.x264.DTS-FGT.torrent (67.85 KB, 下载次数: 81)

回复

使用道具 举报

小黑屋|磁力链接吧 |网站地图

本网站所有资源来自网络,如无意中侵犯了您的权益,请发邮件至 [email protected],立即清除相关链接

GMT+8, 2019-10-21 02:48 , Processed in 0.201238 second(s), 27 queries .

Powered by Discuz! X3.2

© 2001-2013 Comsenz Inc.

快速回复 返回顶部 返回列表