磁力链接吧

 找回密码
 立即注册
搜索

[喜剧片] 两女一男 Two.Girls.and.a.Guy.1997.1080p.BluRay.x264.DTS-FGT 7.8GB

[复制链接]
电影首发 发表于 2015-7-3 08:09:00 | 显示全部楼层 |阅读模式

译  名 两女一男
片  名 Two Girls and a Guy
年  代 1997
国  家 美国
类  别 喜剧/剧情
语  言 英语
上映日期 1997-09-09(多伦多电影节)
片  长 84 分钟
导  演 詹姆斯·托贝克 James Toback
主  演 海瑟·格拉汉姆 Heather Graham
      娜塔莎·格雷格逊·瓦格纳 Natasha Gregson Wagner
      小罗伯特·唐尼 Robert Downey Jr.


简  介


  Carla 与 Lou两位女孩在一栋阁楼外的大街上等各自的男朋友,很快他们发现两个人等的都是一个男孩——年轻的演员Blake。Blake对两个女孩都是只爱她一个,但自己实际过着双重生活,这样已有好几个月。两个女孩非常生气,他们冲回了阁楼。当Blake到来的时候,又招致了一连串的指控与不断的解释。


Video
ID                                       : 1
Format                                   : AVC
Format/Info                              : Advanced Video Codec
Format profile                           : [email protected]
Format settings, CABAC                   : Yes
Format settings, ReFrames                : 4 frames
Codec ID                                 : V_MPEG4/ISO/AVC
Duration                                 : 1h 25mn
Bit rate                                 : 11.3 Mbps
Width                                    : 1 920 pixels
Height                                   : 1 040 pixels
Display aspect ratio                     : 1.85:1
Frame rate mode                          : Constant
Frame rate                               : 23.976 fps
Color space                              : YUV
Chroma subsampling                       : 4:2:0
Bit depth                                : 8 bits
Scan type                                : Progressive
Bits/(Pixel*Frame)                       : 0.235
Stream size                              : 6.74 GiB (86%)
Writing library                          : x264 core 133 r2334 a3ac64b
Encoding settings                        : cabac=1 / ref=4 / deblock=1:-1:-1 / analyse=0x3:0x113 / me=umh / subme=10 / psy=1 / psy_rd=1.00:0.15 / mixed_ref=1 / me_range=24 / chroma_me=1 / trellis=2 / 8x8dct=1 / cqm=0 / deadzone=21,11 / fast_pskip=0 / chroma_qp_offset=-3 / threads=6 / lookahead_threads=1 / sliced_threads=0 / nr=0 / decimate=1 / interlaced=0 / bluray_compat=0 / constrained_intra=0 / bframes=8 / b_pyramid=2 / b_adapt=2 / b_bias=0 / direct=1 / weightb=1 / open_gop=0 / weightp=2 / keyint=230 / keyint_min=23 / scenecut=40 / intra_refresh=0 / rc_lookahead=40 / rc=crf / mbtree=0 / crf=19.5 / qcomp=0.60 / qpmin=0 / qpmax=69 / qpstep=4 / vbv_maxrate=50000 / vbv_bufsize=62500 / crf_max=0.0 / nal_hrd=none / ip_ratio=1.40 / pb_ratio=1.30 / aq=1:1.00
Language                                 : English
Default                                  : Yes
Forced                                   : No

Audio
ID                                       : 2
Format                                   : DTS
Format/Info                              : Digital Theater Systems
Mode                                     : 16
Format settings, Endianness              : Big
Codec ID                                 : A_DTS
Duration                                 : 1h 25mn
Bit rate mode                            : Constant
Bit rate                                 : 1 509 Kbps
Channel(s)                               : 6 channels
Channel positions                        : Front: L C R, Side: L R, LFE
Sampling rate                            : 48.0 KHz
Bit depth                                : 24 bits
Compression mode                         : Lossy
Stream size                              : 925 MiB (12%)
Language                                 : English
Default                                  : Yes
Forced                                   : No

Text
ID                                       : 3
Format                                   : UTF-8
Codec ID                                 : S_TEXT/UTF8
Codec ID/Info                            : UTF-8 Plain Text
Language                                 : English
Default                                  : No
Forced                                   : No





                                                                                                                                                                                                       

                                                                                                                       
                                                                                                                                                                                                                                                        Two.Girls.and.a.Guy.1997.1080p.BluRay.x264.DTS-FGT.torrent (78.61 KB, 下载次数: 60)

回复

使用道具 举报

小黑屋|磁力链接吧 |网站地图

本网站所有资源来自网络,如无意中侵犯了您的权益,请发邮件至 [email protected],立即清除相关链接

GMT+8, 2019-10-19 19:31 , Processed in 0.253095 second(s), 27 queries .

Powered by Discuz! X3.2

© 2001-2013 Comsenz Inc.

快速回复 返回顶部 返回列表