磁力链接吧

 找回密码
 立即注册
搜索

[剧情片] 鲁斯和亚历克斯 5.Flights.Up.2014.LIMITED.720p.BluRay.x264-DRONES 4.4GB

[复制链接]
电影首发 发表于 2015-7-2 08:34:00 | 显示全部楼层 |阅读模式

译  名 鲁斯和亚历克斯
片  名 5 Flights Up
年  代 2014
国  家 美国
类  别 剧情
语  言 英语
上映日期 2015-05-08(美国)
导  演 理查德·隆克瑞恩 Richard Loncraine
主  演 摩根·弗里曼 Morgan Freeman
      黛安·基顿 Diane Keaton
      嘉莉·崔普雷斯顿 Carrie Preston
      辛西娅·尼克松 Cynthia Nixon
      阿莱西娅·雷纳 Alysia Reiner
      克莱尔·范·德·波姆 Claire van der Boom
      乔什·帕斯 Josh Pais
      斯特林·杰里斯 Sterling Jerins
      米利亚姆·肖尔 Miriam Shor
      吉米·帕伦博 Jimmy Palumbo
      Hannah Dunne
      Maddie Corman
      Hani Furstenberg


简  介


  在紐約一所公寓里,一對老夫妻打算搬離,但是面對生活了一輩子的地方,他們總有各種剪不斷理還亂的戀舊情懷...
  5 Flights Up是一部由理查德·隆克瑞恩执导的影片,该片于2015年5月8日美国上映。


获奖情况


  第39届多伦多国际电影节 (2014)
  观众选择奖(提名) 理查德·隆克瑞恩



  • Video
  • ID                                       : 1
  • Format                                   : AVC
  • Format/Info                              : Advanced Video Codec
  • Format profile                           : [email protected]
  • Format settings, CABAC                   : Yes
  • Format settings, ReFrames                : 5 frames
  • Codec ID                                 : V_MPEG4/ISO/AVC
  • Duration                                 : 1h 32mn
  • Bit rate                                 : 5 267 Kbps
  • Width                                    : 1 280 pixels
  • Height                                   : 536 pixels
  • Display aspect ratio                     : 2.40:1
  • Frame rate mode                          : Constant
  • Frame rate                               : 23.976 fps
  • Color space                              : YUV
  • Chroma subsampling                       : 4:2:0
  • Bit depth                                : 8 bits
  • Scan type                                : Progressive
  • Bits/(Pixel*Frame)                       : 0.320
  • Stream size                              : 3.31 GiB (76%)
  • Writing library                          : x264 core 146 r2538 121396c
  • Encoding settings                        : cabac=1 / ref=5 / deblock=1:0:0 / analyse=0x3:0x133 / me=umh / subme=7 / psy=1 / psy_rd=1.00:0.00 / mixed_ref=1 / me_range=16 / chroma_me=1 / trellis=1 / 8x8dct=1 / cqm=0 / deadzone=21,11 / fast_pskip=0 / chroma_qp_offset=-2 / threads=18 / lookahead_threads=3 / sliced_threads=0 / nr=0 / decimate=1 / interlaced=0 / bluray_compat=0 / constrained_intra=0 / bframes=3 / b_pyramid=2 / b_adapt=1 / b_bias=0 / direct=1 / weightb=1 / open_gop=0 / weightp=2 / keyint=250 / keyint_min=23 / scenecut=40 / intra_refresh=0 / rc_lookahead=40 / rc=2pass / mbtree=1 / bitrate=5267 / ratetol=1.0 / qcomp=0.60 / qpmin=0 / qpmax=69 / qpstep=4 / cplxblur=20.0 / qblur=0.5 / ip_ratio=1.40 / aq=1:1.00
  • Language                                 : English
  • Default                                  : Yes
  • Forced                                   : No


  • Audio
  • ID                                       : 2
  • Format                                   : DTS
  • Format/Info                              : Digital Theater Systems
  • Mode                                     : 16
  • Format settings, Endianness              : Big
  • Codec ID                                 : A_DTS
  • Duration                                 : 1h 32mn
  • Bit rate mode                            : Constant
  • Bit rate                                 : 1 509 Kbps
  • Channel(s)                               : 6 channels
  • Channel positions                        : Front: L C R, Side: L R, LFE
  • Sampling rate                            : 48.0 KHz
  • Bit depth                                : 24 bits
  • Compression mode                         : Lossy
  • Stream size                              : 996 MiB (22%)
  • Language                                 : English
  • Default                                  : Yes
  • Forced                                   : No


  • Menu
  • 00:00:00.000                             : en:00:00:00.000
  • 00:05:18.109                             : en:00:05:18.109
  • 00:07:21.900                             : en:00:07:21.900
  • 00:11:04.873                             : en:00:11:04.873
  • 00:14:33.664                             : en:00:14:33.664
  • 00:20:44.869                             : en:00:20:44.869
  • 00:25:55.637                             : en:00:25:55.637
  • 00:31:31.932                             : en:00:31:31.932
  • 00:36:37.237                             : en:00:36:37.237
  • 00:41:27.568                             : en:00:41:27.568
  • 00:45:01.908                             : en:00:45:01.908
  • 00:49:57.453                             : en:00:49:57.453
  • 00:56:02.651                             : en:00:56:02.651
  • 00:59:46.958                             : en:00:59:46.958
  • 01:03:23.591                             : en:01:03:23.591
  • 01:09:43.846                             : en:01:09:43.846
  • 01:15:01.831                             : en:01:15:01.831
  • 01:20:09.972                             : en:01:20:09.972
  • 01:23:26.835                             : en:01:23:26.835
  • 01:26:21.635                             : en:01:26:21.635







                                                                                                                                                                                                       

                                                                                                                       
                                                                                                                                                                                                                                                        5.Flights.Up.2014.LIMITED.720p.BluRay.x264-DRONES.torrent (88.84 KB, 下载次数: 238)

回复

使用道具 举报

小黑屋|磁力链接吧 |网站地图

本网站所有资源来自网络,如无意中侵犯了您的权益,请发邮件至 [email protected]look.com,立即清除相关链接

GMT+8, 2020-6-3 11:59 , Processed in 0.080401 second(s), 27 queries .

Powered by Discuz! X3.2

© 2001-2013 Comsenz Inc.

快速回复 返回顶部 返回列表