磁力链接吧

 找回密码
 立即注册
搜索

逃往雅典娜/雅典大突击/军天杀戮 Escape.To.Athena.1979.1080p.BluRay.x264.DD2.0-FGT ...

[复制链接]
电影首发 发表于 2015-7-2 08:27:00 | 显示全部楼层 |阅读模式

译  名 逃往雅典娜/雅典大突击/军天杀戮/铁胆七壮士
片  名 Escape to Athena
年  代 1979
国  家 英国
类  别 动作/冒险/喜剧/战争
语  言 英语
上映日期 1979-02-16
片  长 125 分钟/Sweden: 119 分钟/Argentina: 120 分钟
导  演 乔治 P. 科斯马图斯 (George P. Cosmatos)
主  演 Roger Moore
      Telly Savalas
      David Niven
      Claudia Cardinale
      Stefanie Powers


简  介


  故事发生在二次世界大战的末期,德军在位于希腊的一个小岛上修建了巨大的潜水艇油库和秘密的火箭发射基地,尽管已是秋后的蚂蚱,但纳粹们的气焰依旧嚣张,他们残酷的对待战俘,并强迫他们超负荷工作。奇诺(特利·萨瓦拉斯 Telly Savalas 饰)是当地的武装组织领袖,摧毁德军在岛上的一切设备是他的终极目标,被关押在战俘营中的布莱克(大卫·尼文 David Niven 饰),纳特(理查德·朗德特依 Richard Roundtree 饰)和多蒂(斯蒂芬妮·鲍尔斯 Stefanie Powers 饰)看中了这一点,他们和奇诺取得了联系,试图暴力夺取岛屿的控制权。
  行动很成功,曾经的战俘营司令里希特(罗杰·摩尔 Roger Moore 饰)如今沦为了俘虏,在众人的劝说下,里希特明白了抵抗的无效,他决定与当地抵抗组织们联手,彻底摧毁德军在岛屿上的窝点。


Video
ID                                       : 1
Format                                   : AVC
Format/Info                              : Advanced Video Codec
Format profile                           : [email protected]
Format settings, CABAC                   : Yes
Format settings, ReFrames                : 4 frames
Codec ID                                 : V_MPEG4/ISO/AVC
Duration                                 : 1h 59mn
Bit rate                                 : 10 000 Kbps
Width                                    : 1 920 pixels
Height                                   : 816 pixels
Display aspect ratio                     : 2.35:1
Frame rate mode                          : Constant
Frame rate                               : 24.000 fps
Color space                              : YUV
Chroma subsampling                       : 4:2:0
Bit depth                                : 8 bits
Scan type                                : Progressive
Bits/(Pixel*Frame)                       : 0.266
Stream size                              : 8.16 GiB (92%)
Writing library                          : x264 core 142 r2479 dd79a61
Encoding settings                        : cabac=1 / ref=3 / deblock=1:0:0 / analyse=0x3:0x113 / me=hex / subme=7 / psy=1 / psy_rd=1.00:0.00 / mixed_ref=1 / me_range=16 / chroma_me=1 / trellis=1 / 8x8dct=1 / cqm=0 / deadzone=21,11 / fast_pskip=1 / chroma_qp_offset=-2 / threads=12 / lookahead_threads=2 / sliced_threads=0 / nr=0 / decimate=1 / interlaced=0 / bluray_compat=0 / constrained_intra=0 / bframes=3 / b_pyramid=2 / b_adapt=1 / b_bias=0 / direct=1 / weightb=1 / open_gop=0 / weightp=2 / keyint=240 / keyint_min=24 / scenecut=40 / intra_refresh=0 / rc_lookahead=40 / rc=abr / mbtree=1 / bitrate=10000 / ratetol=1.0 / qcomp=0.60 / qpmin=0 / qpmax=69 / qpstep=4 / vbv_maxrate=62500 / vbv_bufsize=78125 / nal_hrd=none / filler=0 / ip_ratio=1.40 / aq=1:1.00
Language                                 : English
Default                                  : Yes
Forced                                   : No
Color range                              : Limited
Color primaries                          : BT.709
Transfer characteristics                 : BT.709
Matrix coefficients                      : BT.709

Audio
ID                                       : 2
Format                                   : AC-3
Format/Info                              : Audio Coding 3
Mode extension                           : CM (complete main)
Format settings, Endianness              : Big
Codec ID                                 : A_AC3
Duration                                 : 1h 59mn
Bit rate mode                            : Constant
Bit rate                                 : 640 Kbps
Channel(s)                               : 2 channels
Channel positions                        : Front: L R
Sampling rate                            : 48.0 KHz
Bit depth                                : 16 bits
Compression mode                         : Lossy
Delay relative to video                  : -5ms
Stream size                              : 546 MiB (6%)
Language                                 : English
Default                                  : Yes
Forced                                   : No

Text
ID                                       : 3
Format                                   : PGS
Muxing mode                              : zlib
Codec ID                                 : S_HDMV/PGS
Codec ID/Info                            : Picture based subtitle format used on BDs/HD-DVDs
Language                                 : English
Default                                  : No
Forced                                   : No

Menu
00:00:00.000                             : :Chapter 1
00:12:59.000                             : :Chapter 2
00:39:23.000                             : :Chapter 3
00:57:10.458                             : :Chapter 4
01:22:34.208                             : :Chapter 5
01:50:30.958                             : :Chapter 6





                                                                                                                                                                                                       

                                                                                                                       
                                                                                                                                                                                                                                                        Escape.To.Athena.1979.1080p.BluRay.x264.DD2.0-FGT.torrent (89.33 KB, 下载次数: 147)

回复

使用道具 举报

小黑屋|磁力链接吧 |网站地图

本网站所有资源来自网络,如无意中侵犯了您的权益,请发邮件至 [email protected],立即清除相关链接

GMT+8, 2020-6-3 13:00 , Processed in 0.121441 second(s), 27 queries .

Powered by Discuz! X3.2

© 2001-2013 Comsenz Inc.

快速回复 返回顶部 返回列表