磁力链接吧

 找回密码
 立即注册
搜索

[剧情片] 小飞侠彼得潘/彼得·潘/小飞侠 Peter.Pan.2003.1080p.BluRay.x264.DD5.1-FGT 10.4GB . ...

[复制链接]
电影首发 发表于 2015-7-1 08:23:00 | 显示全部楼层 |阅读模式

译  名 小飞侠彼得潘/彼得·潘/小飞侠
片  名 Peter Pan
年  代 2003
国  家 澳大利亚/美国/英国
类  别 剧情/奇幻/冒险
语  言 英语
上映日期 2003-12-09(英国)
片  长 113 分钟
导  演 P·J·霍根 P.J. Hogan
主  演 詹森·艾萨克 Jason Isaacs
      杰瑞米·桑普特 Jeremy Sumpter
      蕾切儿·哈伍德 Rachel Hurd-Wood
      琳恩·雷德格瑞夫 Lynn Redgrave
      理查德·布赖尔斯 Richard Briers
      奥莉维亚·威廉姆斯 Olivia Williams
      杰弗里·帕尔默 Geoffrey Palmer
      Harry Newell
      露迪芬·莎妮 Ludivine Sagnier
      乔治·麦凯 George MacKay
      哈利·艾登 Harry Eden


简  介


  这是一个小女孩的冒险故事,生活在维多利亚时代的女孩温迪(雷切尔·霍伍德 饰),出生在压抑的环境中,还整天被一个呆板顽固的父亲,扼杀她童年的快乐和梦想。温迪的好朋友约翰和米高,也遭受着同样的痛苦,他们梦想着有一天,能够学会在天上飞,这样他们就可以飞离令他们讨厌的家了。
  终于有一个黑暗的夜晚,长着乳牙的小飞侠彼得·潘(杰里米·森普特 饰),飞到了他们的窗前,说要教会他们飞翔,带他们去一个美丽的地方。温迪、约翰和米高都高兴极了,于是,他们很快就跟着小飞侠学会了飞,而且飞到了一个美丽的海岛——梦幻岛。
  原来,小飞侠是梦幻岛上永远也长不大的调皮小孩,他和小仙子一起生活在这个岛上,但两个人觉得多少有点寂寞,于是就请来了云蒂他们三个梦想飞的人类小孩。
  飞到梦幻岛,温迪立刻被这个美丽而神秘的海岛吸引住了,这里有茂密的丛林、高大的树木,还有野蛮的印第安人,以及横行附近海面的坏蛋海盗。小飞侠带着温迪他们找到了六、七个隐蔽的树洞,这就是他们在梦幻岛上的家,平时他们在海盗的深处探险,晚上累了就回到树洞休息游戏。
  温迪、约翰和米高本来可以在梦幻岛开心地嬉戏玩乐,和小飞侠与小仙女两位神秘朋友快乐的生活,优哉游哉,岂料,无恶不作的海盗铁钩船长(詹森·艾萨克 饰)带着他的一帮海盗前来大肆破坏。勇敢的小飞侠,这次要营救他的好朋友离开梦幻岛,为此他要与铁钩船长展开一轮激战……


Video
ID                                       : 1
Format                                   : AVC
Format/Info                              : Advanced Video Codec
Format profile                           : [email protected]
Format settings, CABAC                   : Yes
Format settings, ReFrames                : 5 frames
Codec ID                                 : V_MPEG4/ISO/AVC
Duration                                 : 1h 53mn
Bit rate                                 : 12.5 Mbps
Width                                    : 1 920 pixels
Height                                   : 796 pixels
Display aspect ratio                     : 2.40:1
Frame rate mode                          : Constant
Frame rate                               : 23.976 fps
Color space                              : YUV
Chroma subsampling                       : 4:2:0
Bit depth                                : 8 bits
Scan type                                : Progressive
Bits/(Pixel*Frame)                       : 0.341
Stream size                              : 9.69 GiB (93%)
Writing library                          : x264 core 129 r2230 1cffe9f
Encoding settings                        : cabac=1 / ref=5 / deblock=1:-3:-3 / analyse=0x3:0x113 / me=tesa / subme=11 / psy=1 / psy_rd=1.10:0.00 / mixed_ref=1 / me_range=24 / chroma_me=1 / trellis=2 / 8x8dct=1 / cqm=0 / deadzone=21,11 / fast_pskip=1 / chroma_qp_offset=-2 / threads=12 / lookahead_threads=2 / sliced_threads=0 / nr=0 / decimate=1 / interlaced=0 / bluray_compat=0 / constrained_intra=0 / bframes=8 / b_pyramid=2 / b_adapt=2 / b_bias=0 / direct=3 / weightb=1 / open_gop=0 / weightp=2 / keyint=240 / keyint_min=23 / scenecut=40 / intra_refresh=0 / rc=2pass / mbtree=0 / bitrate=12500 / ratetol=1.0 / qcomp=0.60 / qpmin=10 / qpmax=69 / qpstep=4 / cplxblur=20.0 / qblur=0.5 / ip_ratio=1.40 / pb_ratio=1.30 / aq=2:0.90
Language                                 : English
Default                                  : Yes
Forced                                   : No

Audio
ID                                       : 2
Format                                   : AC-3
Format/Info                              : Audio Coding 3
Mode extension                           : CM (complete main)
Format settings, Endianness              : Big
Codec ID                                 : A_AC3
Duration                                 : 1h 53mn
Bit rate mode                            : Constant
Bit rate                                 : 640 Kbps
Channel(s)                               : 6 channels
Channel positions                        : Front: L C R, Side: L R, LFE
Sampling rate                            : 48.0 KHz
Bit depth                                : 16 bits
Compression mode                         : Lossy
Stream size                              : 519 MiB (5%)
Language                                 : English
Default                                  : Yes
Forced                                   : No

Text #1
ID                                       : 3
Format                                   : UTF-8
Codec ID                                 : S_TEXT/UTF8
Codec ID/Info                            : UTF-8 Plain Text
Language                                 : Greek
Default                                  : No
Forced                                   : No

Text #2
ID                                       : 4
Format                                   : UTF-8
Codec ID                                 : S_TEXT/UTF8
Codec ID/Info                            : UTF-8 Plain Text
Language                                 : English
Default                                  : No
Forced                                   : No

Text #3
ID                                       : 5
Format                                   : UTF-8
Codec ID                                 : S_TEXT/UTF8
Codec ID/Info                            : UTF-8 Plain Text
Language                                 : Dutch
Default                                  : No
Forced                                   : No

Text #4
ID                                       : 6
Format                                   : UTF-8
Codec ID                                 : S_TEXT/UTF8
Codec ID/Info                            : UTF-8 Plain Text
Language                                 : Hebrew
Default                                  : No
Forced                                   : No

Text #5
ID                                       : 7
Format                                   : UTF-8
Codec ID                                 : S_TEXT/UTF8
Codec ID/Info                            : UTF-8 Plain Text
Language                                 : Portuguese
Default                                  : No
Forced                                   : No

Text #6
ID                                       : 8
Format                                   : UTF-8
Codec ID                                 : S_TEXT/UTF8
Codec ID/Info                            : UTF-8 Plain Text
Language                                 : Romanian
Default                                  : No
Forced                                   : No

Text #7
ID                                       : 9
Format                                   : UTF-8
Codec ID                                 : S_TEXT/UTF8
Codec ID/Info                            : UTF-8 Plain Text
Language                                 : Spanish
Default                                  : No
Forced                                   : No

Menu
00:00:00.000                             : en:00:00:00.000
00:06:03.071                             : en:00:06:03.071
00:14:48.012                             : en:00:14:48.012
00:20:21.262                             : en:00:20:21.262
00:26:23.499                             : en:00:26:23.499
00:32:24.234                             : en:00:32:24.234
00:39:31.703                             : en:00:39:31.703
00:46:10.142                             : en:00:46:10.142
00:52:38.572                             : en:00:52:38.572
00:59:41.912                             : en:00:59:41.912
01:05:30.593                             : en:01:05:30.593
01:11:57.063                             : en:01:11:57.063
01:20:14.184                             : en:01:20:14.184
01:25:10.355                             : en:01:25:10.355
01:31:50.714                             : en:01:31:50.714
01:40:05.416                             : en:01:40:05.416







                                                                                                                                                                                                       

                                                                                                                       
                                                                                                                                                                                                                                                        Peter.Pan.2003.1080p.BluRay.x264.DD5.1-FGT.torrent (52.61 KB, 下载次数: 140)

回复

使用道具 举报

小黑屋|磁力链接吧 |网站地图

本网站所有资源来自网络,如无意中侵犯了您的权益,请发邮件至 [email protected],立即清除相关链接

GMT+8, 2020-6-4 09:19 , Processed in 0.165782 second(s), 27 queries .

Powered by Discuz! X3.2

© 2001-2013 Comsenz Inc.

快速回复 返回顶部 返回列表