磁力链接吧

 找回密码
 立即注册
搜索

遥远的桥/夺桥遗恨 A.Bridge.Too.Far.1977.1080p.BluRay.x264.DTS-FGT 14.17GB ... ...

[复制链接]
电影首发 发表于 2015-6-30 08:26:00 | 显示全部楼层 |阅读模式

译  名 遥远的桥/夺桥遗恨/鹰掠战士/英雄冢
片  名 A Bridge Too Far
年  代 1977
国  家 美国/英国
类  别 动作/剧情/历史/战争
语  言 英语/德语/荷兰语
上映日期 1977-06-15
片  长 175 分钟/Finland: 158 分钟
导  演 理查德·阿滕伯勒 Richard Attenborough
主  演 詹姆斯·凯恩 James Caan
      迈克尔·凯恩 Michael Caine
      肖恩·康纳利 Sean Connery
      德克·博加德 Dirk Bogarde
      吉恩·哈克曼 Gene Hackman
      埃利奥特·古尔德 Elliott Gould
      爱德华·福克斯 Edward Fox
      安东尼·霍普金斯 Anthony Hopkins
      劳伦斯·奥利弗 Laurence Olivier
      罗伯特·雷德福 Robert Redford


简  介


  欧战尾声,盟军上下逐渐弥漫着乐观的情绪。为了提前结束战争,各地盟军将领认为只要一番猛攻,便可提早直捣柏林结束战争。于是轻率地将大批伞兵空投在德军营地背后,去攻占阿纳姆的那座横跨莱茵河的大桥。不料遭遇德军的顽强抵抗,盟军付出了伤亡惨重的代价。这场堪称二战中最具戏剧性的战役,终以盟军的惨痛失败而告终。
  由奥斯卡金像奖得奖导演理查德·阿滕伯勒执导的战争巨片《遥远的桥》,根据科尼利厄斯·瑞恩的同名小说改编而成。影片表现和讴歌了盟军在二战中浴血奋战的斗争精神,被誉为电影史上的超级战争巨片。本片的明星阵容空前强大,聚集了诸如詹姆斯·卡恩、迈克尔·凯恩、肖恩·康纳利、罗伯特·雷德福、安东尼·霍普金斯等数国的数十位明星。本片荣获1978年第31届英国电影和电视艺术学院奖最佳摄影、最佳男配角、最佳原声等多项大奖与提名。


Video
ID                                       : 1
Format                                   : AVC
Format/Info                              : Advanced Video Codec
Format profile                           : [email protected]
Format settings, CABAC                   : Yes
Format settings, ReFrames                : 5 frames
Codec ID                                 : V_MPEG4/ISO/AVC
Duration                                 : 2h 56mn
Bit rate                                 : 9 998 Kbps
Width                                    : 1 920 pixels
Height                                   : 816 pixels
Display aspect ratio                     : 2.35:1
Frame rate mode                          : Constant
Frame rate                               : 23.976 fps
Color space                              : YUV
Chroma subsampling                       : 4:2:0
Bit depth                                : 8 bits
Scan type                                : Progressive
Bits/(Pixel*Frame)                       : 0.266
Stream size                              : 12.0 GiB (85%)
Writing library                          : x264 core 60 r886M 1075536
Encoding settings                        : cabac=1 / ref=5 / deblock=1:-3:-3 / analyse=0x3:0x113 / me=umh / subme=6 / rdcmp=psy / brdo=1 / mixed_ref=1 / me_range=16 / chroma_me=1 / trellis=0 / 8x8dct=1 / cqm=2 / deadzone=6,4 / chroma_qp_offset=0 / threads=6 / nr=0 / decimate=0 / mbaff=0 / bframes=16 / b_pyramid=1 / b_adapt=1 / b_bias=0 / direct=1 / wpredb=1 / bime=1 / keyint=250 / keyint_min=25 / scenecut=40(pre) / rc=2pass / bitrate=9998 / ratetol=1.0 / rceq=\'blurCplx^(1-qComp)\' / qcomp=1.00 / qpmin=10 / qpmax=51 / qpstep=4 / cplxblur=20.0 / qblur=0.5 / ip_ratio=1.40 / pb_ratio=1.30 / aq=2:1.00
Language                                 : English
Default                                  : Yes
Forced                                   : No

Audio
ID                                       : 2
Format                                   : DTS
Format/Info                              : Digital Theater Systems
Mode                                     : 16
Format settings, Endianness              : Big
Codec ID                                 : A_DTS
Duration                                 : 2h 56mn
Bit rate mode                            : Constant
Bit rate                                 : 1 509 Kbps
Channel(s)                               : 6 channels
Channel positions                        : Front: L C R, Side: L R, LFE
Sampling rate                            : 48.0 KHz
Bit depth                                : 24 bits
Compression mode                         : Lossy
Stream size                              : 1.86 GiB (13%)
Language                                 : English
Default                                  : Yes
Forced                                   : No

Text #1
ID                                       : 3
Format                                   : UTF-8
Codec ID                                 : S_TEXT/UTF8
Codec ID/Info                            : UTF-8 Plain Text
Language                                 : English
Default                                  : No
Forced                                   : No

Text #2
ID                                       : 4
Format                                   : UTF-8
Codec ID                                 : S_TEXT/UTF8
Codec ID/Info                            : UTF-8 Plain Text
Title                                    : FORCED
Language                                 : English
Default                                  : Yes
Forced                                   : Yes






                                                                                                                                                                                                       

                                                                                                                       
                                                                                                                                                                                                                                                        A.Bridge.Too.Far.1977.1080p.BluRay.x264.DTS-FGT.torrent (71.44 KB, 下载次数: 169)

回复

使用道具 举报

小黑屋|磁力链接吧 |网站地图

本网站所有资源来自网络,如无意中侵犯了您的权益,请发邮件至 [email protected],立即清除相关链接

GMT+8, 2019-10-21 02:06 , Processed in 0.332848 second(s), 27 queries .

Powered by Discuz! X3.2

© 2001-2013 Comsenz Inc.

快速回复 返回顶部 返回列表