磁力链接吧

 找回密码
 立即注册
搜索

极速竞赛/生死极速/狂烈战车 Driven.2001.1080p.BluRay.x264.DTS-FGT 9.17GB ... ...

[复制链接]
电影首发 发表于 2015-6-29 09:16:00 | 显示全部楼层 |阅读模式

译  名 极速竞赛/生死极速/狂烈战车
片  名 Driven
年  代 2001
国  家 美国/加拿大/澳大利亚
类  别 动作/剧情/运动
语  言 英语/德语/西班牙语
上映日期 2001-04-27
片  长 116 分钟
导  演 雷尼·哈林 Renny Harlin
主  演 西尔维斯特·史泰龙 Sylvester Stallone
      伯特·雷诺兹 Burt Reynolds
      琦普·帕杜 Kip Pardue
      蒂尔·施威格 Til Schweiger
      吉娜·格申 Gina Gershon


简  介


  在一次残酷的事故过去多年后,乔.坦托(席维斯.史泰龙)一直试图忘记那令他魂牵梦绕的赛车场。当赛车老板卡尔.亨利(伯特.雷诺兹)找到乔,问他愿不愿意重操旧业时,乔意识到自己圆梦的机会来了——虽然这次他是作为一个教练而不是车手。
  吉米.布莱(基普.帕杜)是个很有天赋的新人,但在各方面的压力下,吉米反而丧失了信心和斗志。与此同时,他还无可救药地爱上了自己的对头、一流车手鲍(蒂尔.斯威格)的女朋友索非娅(艾斯黛拉.沃伦)。
  乔和吉米走到了一起。这对老少组合能相得益彰、战胜诸多困难,最终拿到冠军吗?


Video
ID                                       : 1
Format                                   : AVC
Format/Info                              : Advanced Video Codec
Format profile                           : [email protected]
Format settings, CABAC                   : No
Format settings, ReFrames                : 2 frames
Codec ID                                 : V_MPEG4/ISO/AVC
Duration                                 : 1h 56mn
Bit rate                                 : 9 503 Kbps
Nominal bit rate                         : 10 000 Kbps
Width                                    : 1 920 pixels
Height                                   : 800 pixels
Display aspect ratio                     : 2.40:1
Frame rate mode                          : Constant
Frame rate                               : 23.976 fps
Color space                              : YUV
Chroma subsampling                       : 4:2:0
Bit depth                                : 8 bits
Scan type                                : Progressive
Bits/(Pixel*Frame)                       : 0.258
Stream size                              : 7.76 GiB (85%)
Writing library                          : x264 core 112
Encoding settings                        : cabac=0 / ref=1 / deblock=1:0:0 / analyse=0x1:0x111 / me=umh / subme=5 / psy=1 / psy_rd=0.00:0.00 / mixed_ref=0 / me_range=16 / chroma_me=1 / trellis=0 / 8x8dct=0 / cqm=0 / deadzone=21,11 / fast_pskip=0 / chroma_qp_offset=0 / threads=6 / sliced_threads=0 / nr=0 / decimate=1 / interlaced=0 / constrained_intra=0 / bframes=3 / b_pyramid=0 / b_adapt=1 / b_bias=0 / direct=1 / weightb=0 / open_gop=0 / weightp=0 / keyint=240 / keyint_min=23 / scenecut=40 / intra_refresh=0 / rc_lookahead=40 / rc=abr / mbtree=1 / bitrate=10000 / ratetol=1.0 / qcomp=0.60 / qpmin=3 / qpmax=51 / qpstep=4 / ip_ratio=1.40 / aq=1:1.00
Language                                 : English
Default                                  : Yes
Forced                                   : No
Color range                              : Limited
Color primaries                          : BT.709
Transfer characteristics                 : BT.709
Matrix coefficients                      : BT.709

Audio
ID                                       : 2
Format                                   : DTS
Format/Info                              : Digital Theater Systems
Mode                                     : 16
Format settings, Endianness              : Big
Codec ID                                 : A_DTS
Duration                                 : 1h 56mn
Bit rate mode                            : Constant
Bit rate                                 : 1 509 Kbps
Channel(s)                               : 6 channels
Channel positions                        : Front: L C R, Side: L R, LFE
Sampling rate                            : 48.0 KHz
Bit depth                                : 24 bits
Compression mode                         : Lossy
Stream size                              : 1.23 GiB (13%)
Language                                 : English
Default                                  : Yes
Forced                                   : No

Menu
00:00:00.000                             : en:Chapter 1
00:04:42.282                             : en:Chapter 2
00:06:30.265                             : en:Chapter 3
00:10:26.626                             : en:Chapter 4
00:13:11.666                             : en:Chapter 5
00:15:40.231                             : en:Chapter 6
00:18:02.123                             : en:Chapter 7
00:22:24.176                             : en:Chapter 8
00:26:55.531                             : en:Chapter 9
00:30:27.159                             : en:Chapter 10
00:33:35.847                             : en:Chapter 11
00:38:22.967                             : en:Chapter 12
00:40:22.420                             : en:Chapter 13
00:45:10.291                             : en:Chapter 14
00:49:00.396                             : en:Chapter 15
00:52:40.491                             : en:Chapter 16
00:56:18.834                             : en:Chapter 17
00:58:59.494                             : en:Chapter 18
01:02:13.313                             : en:Chapter 19
01:04:33.786                             : en:Chapter 20
01:06:38.161                             : en:Chapter 21
01:09:34.795                             : en:Chapter 22
01:13:44.879                             : en:Chapter 23
01:16:08.105                             : en:Chapter 24
01:20:47.759                             : en:Chapter 25
01:25:52.606                             : en:Chapter 26
01:28:06.072                             : en:Chapter 27
01:32:24.581                             : en:Chapter 28
01:36:24.821                             : en:Chapter 29
01:38:30.363                             : en:Chapter 30
01:40:57.093                             : en:Chapter 31
01:44:15.541                             : en:Chapter 32
01:47:01.290                             : en:Chapter 33
01:49:37.571                             : en:Chapter 34





                                                                                                                                                                                                       

                                                                                                                       
                                                                                                                                                                                                                                                        Driven.2001.1080p.BluRay.x264.DTS-FGT.torrent (92.27 KB, 下载次数: 82)

回复

使用道具 举报

小黑屋|磁力链接吧 |网站地图

本网站所有资源来自网络,如无意中侵犯了您的权益,请发邮件至 [email protected],立即清除相关链接

GMT+8, 2019-10-19 20:11 , Processed in 0.232105 second(s), 27 queries .

Powered by Discuz! X3.2

© 2001-2013 Comsenz Inc.

快速回复 返回顶部 返回列表