磁力链接吧

 找回密码
 立即注册
搜索

[喜剧片] 哈啦猛男秀/戆直舞男 Deuce.Bigalow.Male.Gigolo.1999.720p.WEB-DL.DD5.1.H264-FGT 2. ...

[复制链接]
电影首发 发表于 2015-6-27 08:08:00 | 显示全部楼层 |阅读模式

译  名 哈啦猛男秀/戆直舞男/脱线牛郎/憨直舞男
片  名 Deuce Bigalow: Male Gigolo
年  代 1999
国  家 美国
类  别 喜剧
语  言 英语
上映日期 2000-03-30(美国)
片  长 88 分钟
导  演 迈克·米歇尔 Mike Mitchell
主  演 罗伯·施奈德 Rob Schneider
      阿里加·巴利吉斯 Arija Bareikis
      奥德·菲尔 Oded Fehr


简  介


  其貌不扬的小人物米特·德斯·比格劳(罗伯·施奈德 Rob Schneider 饰)是一个鱼缸清洁工,因全裸上阵而被水族馆扫地出门的他,偶然得到一份去别墅清洁鱼缸的工作。别墅的主人安东尼·罗坎特(奥迪德·菲赫尔 Oded Fehr 饰)是一个风光无限的脱衣舞男,他生活优渥,身边美女如云,与米特猥琐不堪的境遇形成鲜明对比。
  某天,安东尼要去瑞士三周,他希望米特留在别墅照顾他生病的鱼,同时还给米特定下诸多严厉的规则。当然,主人一走,米特便展开他宛如假日般的快乐生活。正所谓乐极生悲,米特给这幢豪华的别墅带来巨大的灾难。为了在安东尼回来之前将一切恢复原状,他不得不化身牛郎四处筹钱……


Video
ID                                       : 1
Format                                   : AVC
Format/Info                              : Advanced Video Codec
Format profile                           : [email protected]
Format settings, CABAC                   : No
Format settings, ReFrames                : 2 frames
Codec ID                                 : V_MPEG4/ISO/AVC
Duration                                 : 1h 28mn
Bit rate                                 : 3 979 Kbps
Width                                    : 1 280 pixels
Height                                   : 692 pixels
Display aspect ratio                     : 1.85:1
Frame rate mode                          : Constant
Frame rate                               : 23.976 fps
Color space                              : YUV
Chroma subsampling                       : 4:2:0
Bit depth                                : 8 bits
Scan type                                : Progressive
Bits/(Pixel*Frame)                       : 0.187
Stream size                              : 2.46 GiB (89%)
Title                                    : Deuce.Bigalow.Male.Gigolo.1999.720p.WEB-DL.DD5.1.H264-FGT
Language                                 : English
Default                                  : Yes
Forced                                   : No
Color range                              : Limited
Color primaries                          : BT.709
Transfer characteristics                 : BT.709
Matrix coefficients                      : BT.709

Audio
ID                                       : 2
Format                                   : AC-3
Format/Info                              : Audio Coding 3
Mode extension                           : CM (complete main)
Format settings, Endianness              : Big
Codec ID                                 : A_AC3
Duration                                 : 1h 28mn
Bit rate mode                            : Constant
Bit rate                                 : 384 Kbps
Channel(s)                               : 6 channels
Channel positions                        : Front: L C R, Side: L R, LFE
Sampling rate                            : 48.0 KHz
Bit depth                                : 16 bits
Compression mode                         : Lossy
Stream size                              : 243 MiB (9%)
Title                                    : Deuce.Bigalow.Male.Gigolo.1999.720p.WEB-DL.DD5.1.H264-FGT
Language                                 : English
Default                                  : Yes
Forced                                   : No

Text
ID                                       : 3
Format                                   : UTF-8
Codec ID                                 : S_TEXT/UTF8
Codec ID/Info                            : UTF-8 Plain Text
Language                                 : English
Default                                  : No
Forced                                   : No

Menu
00:00:00.000                             : en:Opening Credits/Skin Diving
00:01:33.000                             : en:Allison and Her Snails
00:02:48.000                             : en:A Real-Life Gigalo
00:10:20.000                             : en:Rules of the House
00:12:12.000                             : en:Some Trouble with the Remote Control
00:13:34.000                             : en:A Little Fire, a Lot of Water
00:17:32.000                             : en:Wolfie and the Wiener Schnitzel
00:19:59.000                             : en:On the Make
00:22:38.000                             : en:A Little Misunderstanding
00:25:25.000                             : en:T.J. Hicks: Male Madam
00:29:27.000                             : en:Coming on Hot and Heavy
00:32:43.000                             : en:A Father\'s Advice
00:34:44.000                             : en:A Date with Tina
00:36:36.000                             : en:A Police Investigation
00:37:45.000                             : en:A Date with Ruth
00:41:03.000                             : en:A Date with Kate
00:44:25.000                             : en:The Investigation Continues
00:46:38.000                             : en:A Date with Carol
00:50:26.000                             : en:Bob Bigalow\'s Birthday
00:53:34.000                             : eneuce Discovers Kate\'s Little Secret
01:00:30.000                             : en:Kate Discovers Deuce\'s Little Secret
01:03:02.000                             : en:One Last Trick
01:06:47.000                             : en:What Women Really Want
01:10:21.000                             : eneuce on Trial
01:13:18.000                             : en:A Poem for Kate
01:15:48.000                             : en:With a Little Help From His Friends
01:18:08.000                             : en:Antoine Arrives Home
01:21:47.000                             : en:Happily-Ever Afters/End Credits





                                                                                                                                                                                                       

                                                                                                                       
                                                                                                                                                                                                                                                        Deuce.Bigalow.Male.Gigolo.1999.720p.WEB-DL.DD5.1.H264-FGT.torrent (55.74 KB, 下载次数: 4537)

回复

使用道具 举报

小黑屋|磁力链接吧 |网站地图

本网站所有资源来自网络,如无意中侵犯了您的权益,请发邮件至 [email protected]outlook.com,立即清除相关链接

GMT+8, 2019-10-19 19:34 , Processed in 0.267818 second(s), 27 queries .

Powered by Discuz! X3.2

© 2001-2013 Comsenz Inc.

快速回复 返回顶部 返回列表