磁力链接吧

 找回密码
 立即注册
搜索

双重赔偿/双重保险/双重生活/双倍赔偿 Double.Indemnity.1944.1080p.BluRay.x264.DTS- ...

[复制链接]
电影首发 发表于 2015-6-25 08:42:00 | 显示全部楼层 |阅读模式

译  名 双重赔偿/双重保险/双重生活/双倍赔偿
片  名 Double Indemnity
年  代 1944
国  家 美国
类  别 犯罪/黑色电影/惊悚
语  言 英语
上映日期 1944-04-24
片  长 107 分钟/Argentina: 110 分钟/Canada: 90 分钟(Ontario)
导  演 比利·怀尔德 Billy Wilder
主  演 弗莱德·麦克莫瑞 Fred MacMurray
      芭芭拉·斯坦威克 Barbara Stanwyck
      爱德华·罗宾逊 Edward G. Robinson
      波特·霍尔 Porter Hall


简  介


  Walter Neff(弗莱德·麦克莫瑞 Fred MacMurray 饰)是一个成功的保险代理人,他在夜里回到办公室,开始在一个录音机上诉说他的故事......
  Neff为了取得Dietrichson先生的保险代理权,来到了他的家中,Dietrichson先生不在,Neff遇到了Dietrichson先生的新妻子Phyllis Dietrichson(芭芭拉·斯坦威克 Barbara Stanwyck 饰)。美丽的Phyllis让Neff感到不自然,而她也开始说起她的丈夫的诸多不好之处。在第二次拜访中,Neff终于控制不住自己的欲望,愿意参与Phyllis的杀夫计划。Neff计划在Dietrichson先生坐火车的时候制造他失足摔下的假象,以骗取“双重保险”。一切进行的非常顺利,Dietrichson先生死掉了,Neff和Phyllis两人的爱情和金钱似乎都有了保障。然而,Neff的好友保险调查员Barton Keyes (爱德华·罗宾逊 Edward G. Robinson 饰)却觉得事有蹊跷,开始调查整个事件......
  本片改编自James M. Cain于1943年出版的同名小说,由导演比利·怀尔德和侦探小说作家雷蒙德·钱德勒共同编剧,获第17届奥斯卡最佳影片等7项提名。


获奖情况


  第17届奥斯卡金像奖 (1945)
  最佳影片(提名)
  最佳导演(提名) 比利·怀尔德
  最佳女主角(提名) 芭芭拉·斯坦威克
  最佳编剧(提名) 雷蒙德·钱德勒 / 比利·怀尔德
  黑白片最佳摄影(提名) John F. Seitz
  最佳录音(提名) 洛伦·L·里德
  剧情/喜剧片最佳配乐(提名) 米克罗斯·罗兹萨


Video
ID                                       : 1
Format                                   : AVC
Format/Info                              : Advanced Video Codec
Format profile                           : [email protected]
Format settings, CABAC                   : Yes
Format settings, ReFrames                : 5 frames
Codec ID                                 : V_MPEG4/ISO/AVC
Duration                                 : 1h 47mn
Bit rate                                 : 16.8 Mbps
Width                                    : 1 420 pixels
Height                                   : 1 080 pixels
Display aspect ratio                     : 4:3
Frame rate mode                          : Constant
Frame rate                               : 23.976 fps
Color space                              : YUV
Chroma subsampling                       : 4:2:0
Bit depth                                : 8 bits
Scan type                                : Progressive
Bits/(Pixel*Frame)                       : 0.457
Stream size                              : 12.4 GiB (95%)
Writing library                          : x264 core 130 r2273 b3065e6
Encoding settings                        : cabac=1 / ref=5 / deblock=1:-3:-3 / analyse=0x3:0x113 / me=umh / subme=11 / psy=1 / psy_rd=0.95:0.10 / mixed_ref=1 / me_range=32 / chroma_me=1 / trellis=2 / 8x8dct=1 / cqm=0 / deadzone=21,11 / fast_pskip=0 / chroma_qp_offset=-5 / threads=12 / lookahead_threads=3 / sliced_threads=0 / nr=0 / decimate=0 / interlaced=0 / bluray_compat=0 / constrained_intra=0 / bframes=10 / b_pyramid=2 / b_adapt=2 / b_bias=0 / direct=3 / weightb=1 / open_gop=0 / weightp=2 / keyint=250 / keyint_min=23 / scenecut=40 / intra_refresh=0 / rc_lookahead=80 / rc=2pass / mbtree=1 / bitrate=16800 / ratetol=1.0 / qcomp=0.60 / qpmin=0 / qpmax=69 / qpstep=4 / cplxblur=20.0 / qblur=0.5 / ip_ratio=1.40 / aq=1:0.95
Language                                 : English
Default                                  : Yes
Forced                                   : No

Audio
ID                                       : 2
Format                                   : DTS
Format/Info                              : Digital Theater Systems
Mode                                     : 16
Format settings, Endianness              : Big
Codec ID                                 : A_DTS
Duration                                 : 1h 47mn
Bit rate mode                            : Constant
Bit rate                                 : 510 Kbps
Channel(s)                               : 2 channels
Channel positions                        : Front: L R
Sampling rate                            : 48.0 KHz
Bit depth                                : 24 bits
Compression mode                         : Lossy
Stream size                              : 394 MiB (3%)
Language                                 : English
Default                                  : Yes
Forced                                   : No





                                                                                                                                                                                                       

                                                                                                                       
                                                                                                                                                                                                                                                        Double.Indemnity.1944.1080p.BluRay.x264.DTS-FGT.torrent (65.85 KB, 下载次数: 40)

回复

使用道具 举报

小黑屋|磁力链接吧 |网站地图

本网站所有资源来自网络,如无意中侵犯了您的权益,请发邮件至 [email protected],立即清除相关链接

GMT+8, 2020-2-24 08:46 , Processed in 0.076829 second(s), 27 queries .

Powered by Discuz! X3.2

© 2001-2013 Comsenz Inc.

快速回复 返回顶部 返回列表