磁力链接吧

 找回密码
 立即注册
搜索

[动作片] 小贼\美女和妙探 Kiss.Kiss.Bang.Bang.2005.1080p.BluRay.x264.DD5.1-FGT 6.56GB ... ...

[复制链接]
电影首发 发表于 2015-6-21 07:46:00 | 显示全部楼层 |阅读模式

译  名 小贼、美女和妙探/接吻! 接吻! 开枪! 开枪!/吻两下打两枪/亲亲,撞撞
片  名 Kiss Kiss Bang Bang
年  代 2005
国  家 美国
类  别 动作/喜剧/犯罪/悬疑/惊悚
语  言 英语
上映日期 2005-09-14
片  长 103分钟
导  演 沙恩·布莱克 Shane Black
主  演 小罗伯特·唐尼 Robert Downey Jr.
      方·基默 Val Kilmer
      米歇尔·莫娜汉 Michelle Monaghan
      柯宾·伯恩森 Corbin Bernsen
      达什·米霍克 Dash Mihok
      洛克蒙·邓巴 Rockmond Dunbar


简  介


  在哈里(小罗伯特·唐尼 Robert Downey Jr.饰)的旁白中,这个带着黑色幽默的故事开始了。他本来是一个衰运连连的惯偷,因为一次躲避警察追捕的缘故,闯入了好莱坞电影的选秀片场。可谓歪打正着,导演竟然一下子就看上了哈里,让他前往洛杉矶接受角色培训。
  哈里就这样莫名其妙地成为了“准演员”,他将会出演一名神探。剧组专门安排哈里到真正的侦探佩里(瓦尔·基尔默 Val Kilmer饰)身边,体验真实的侦探生活。一桩命案等待着他们的调查,而死者是一名女士。这种惊险的生活真让哈里受尽了苦头,因为冷酷的佩里可不是一个容易应付的搭档。
  而同时,哈里在派对上重遇了年少时的梦中情人哈莫妮(米歇尔·莫娜汉 Michelle Monaghan饰)。她已经在好莱坞摸爬滚打一番,仍然名声未扬,如今她的妹妹更是神秘自杀。为了赢得美人心,哈里开始调查这件事情,这时才慢慢发现,这和他们之前接手的命案竟然相关,而且背后还隐藏着一个不为人知的巨大秘密。


Video
ID                                       : 1
Format                                   : AVC
Format/Info                              : Advanced Video Codec
Format profile                           : [email protected]
Format settings, CABAC                   : Yes
Format settings, ReFrames                : 5 frames
Codec ID                                 : V_MPEG4/ISO/AVC
Duration                                 : 1h 42mn
Bit rate                                 : 8 513 Kbps
Width                                    : 1 916 pixels
Height                                   : 794 pixels
Display aspect ratio                     : 2.40:1
Frame rate mode                          : Constant
Frame rate                               : 23.976 fps
Color space                              : YUV
Chroma subsampling                       : 4:2:0
Bit depth                                : 8 bits
Scan type                                : Progressive
Bits/(Pixel*Frame)                       : 0.233
Stream size                              : 5.97 GiB (91%)
Writing library                          : x264 core 142 r2453 ea0ca51
Encoding settings                        : cabac=1 / ref=5 / deblock=1:-3:-3 / analyse=0x3:0x133 / me=umh / subme=11 / psy=1 / psy_rd=1.00:0.10 / mixed_ref=1 / me_range=32 / chroma_me=1 / trellis=2 / 8x8dct=1 / cqm=0 / deadzone=21,11 / fast_pskip=0 / chroma_qp_offset=-3 / threads=6 / lookahead_threads=1 / sliced_threads=0 / nr=0 / decimate=1 / interlaced=0 / bluray_compat=0 / constrained_intra=0 / bframes=6 / b_pyramid=2 / b_adapt=2 / b_bias=0 / direct=3 / weightb=1 / open_gop=0 / weightp=2 / keyint=240 / keyint_min=23 / scenecut=40 / intra_refresh=0 / rc=2pass / mbtree=0 / bitrate=8513 / ratetol=1.0 / qcomp=0.60 / qpmin=0 / qpmax=69 / qpstep=4 / cplxblur=20.0 / qblur=0.5 / ip_ratio=1.40 / pb_ratio=1.30 / aq=1:1.00
Language                                 : English
Default                                  : Yes
Forced                                   : No

Audio
ID                                       : 2
Format                                   : AC-3
Format/Info                              : Audio Coding 3
Mode extension                           : CM (complete main)
Format settings, Endianness              : Big
Codec ID                                 : A_AC3
Duration                                 : 1h 42mn
Bit rate mode                            : Constant
Bit rate                                 : 640 Kbps
Channel(s)                               : 6 channels
Channel positions                        : Front: L C R, Side: L R, LFE
Sampling rate                            : 48.0 KHz
Bit depth                                : 16 bits
Compression mode                         : Lossy
Stream size                              : 470 MiB (7%)
Language                                 : English
Default                                  : Yes
Forced                                   : No

Text
ID                                       : 3
Format                                   : UTF-8
Codec ID                                 : S_TEXT/UTF8
Codec ID/Info                            : UTF-8 Plain Text
Language                                 : English
Default                                  : No
Forced                                   : No

Menu
00:00:00.000                             : :Chapter 01
00:03:24.621                             : :Chapter 02
00:08:24.754                             : :Chapter 03
00:12:46.640                             : :Chapter 04
00:17:19.288                             : :Chapter 05
00:23:39.334                             : :Chapter 06
00:25:27.901                             : :Chapter 07
00:30:57.772                             : :Chapter 08
00:33:35.054                             : :Chapter 09
00:36:29.103                             : :Chapter 10
00:38:38.899                             : :Chapter 11
00:44:22.660                             : :Chapter 12
00:46:42.341                             : :Chapter 13
00:49:06.777                             : :Chapter 14
00:52:15.590                             : :Chapter 15
00:56:11.076                             : :Chapter 16
00:59:23.893                             : :Chapter 17
01:02:11.936                             : :Chapter 18
01:05:45.566                             : :Chapter 19
01:07:15.531                             : :Chapter 20
01:11:07.888                             : :Chapter 21
01:15:56.552                             : :Chapter 22
01:19:11.830                             : :Chapter 23
01:22:51.341                             : :Chapter 24
01:26:11.040                             : :Chapter 25
01:28:49.991                             : :Chapter 26
01:32:10.691                             : :Chapter 27
01:35:23.968                             : :Chapter 28
01:38:30.321                             : :Chapter 29







                                                                                                                                                                                                       

                                                                                                                       
                                                                                                                                                                                                                                                        Kiss.Kiss.Bang.Bang.2005.1080p.BluRay.x264.DD5.1-FGT.torrent (66.25 KB, 下载次数: 347)

回复

使用道具 举报

小黑屋|磁力链接吧 |网站地图

本网站所有资源来自网络,如无意中侵犯了您的权益,请发邮件至 [email protected],立即清除相关链接

GMT+8, 2019-10-19 19:14 , Processed in 0.188479 second(s), 27 queries .

Powered by Discuz! X3.2

© 2001-2013 Comsenz Inc.

快速回复 返回顶部 返回列表