百度云资源论坛

 找回密码
 立即注册
搜索

[其他] [1994][美国][动作][炮弹专家][BD-MKV/2.15G][国英双语][1024分辨率] 电影 剧情 ...

[复制链接]
电影首发 发表于 2015-1-3 22:17:03 | 显示全部楼层 |阅读模式


◎片  名 The Specialist
◎中文 名 炮弹专家
◎年  代 1994年
◎国  家 美国/德国/加拿大
◎类  别 剧情 惊秫 动作
◎语  言 英语
◎片  长 110 mins
◎导  演 路易斯·罗萨 Luis Llosa
◎主  演 西尔维斯特·史泰龙 Sylvester Stallone
      莎朗·斯通 Sharon Stone
      詹姆斯·伍兹 James Woods
      埃里克·罗伯茨 Eric Roberts
      罗德·斯泰格尔 Rod Steiger

【视频格式】MKV(X264)
【字      幕】外挂中文
【视频尺寸】1024 x 576

【文件大小】2.15G
【发 布 人】轨 迹
【影片截图】






◎简  介
  中央情报局的炸弹专家雷在一次行动中误伤无辜,内疚辞职,当职业杀手维生。一神秘女子美电话传音,要他杀死三个黑社会头子。雷发现她以身作饵,答应为她卖命,两人也产生了恋情,但美其实是受雷的对头力特摆布,以报当年之仇。

【相关评论】:影片是1994年史泰龙与莎朗·斯通合作的惊险动作片,正如片名,影片中展现了各种高超的高科技爆破手段,两个当年的爆破特种兵如今一个是黑社会保镖,一个是职业炸弹杀手,为了莎朗·斯通的旧日恩仇,两人重新交战。
在主演了大量的动作片之后,史泰龙在片中饰演了冷静寡言的炸弹专家,不靠强壮的肢体,而是机智,技术与头脑与敌人周旋,94年的莎朗·斯通也正是风情万种之时,两人在片中的暧昧表演倒是史泰龙不多见的场面。反一号詹姆斯·伍兹在片中也有精彩的表现,在警察局表演装弹拆弹的场面以及与史泰龙的对手戏都给人留下了深刻印象。


Format                           : Matroska
File size                        : 2.16 GiB
Duration                         : 1h 50mn
Overall bit rate                 : 2 807 Kbps
Movie name                       : 炮弹专家.1994
Encoded date                     : UTC 2011-09-02 13:36:58
Writing application              : mkvmerge v4.4.0 ('Die Wiederkehr') 编译于 Oct 31 2010 21:52:48
Writing library                  : libebml v1.0.0 + libmatroska v1.0.0

Video
ID                               : 1
Format                           : AVC
Format/Info                      : Advanced Video Codec
Format profile                   :
mailto:[email protected]
Format settings, CABAC           : Yes
Format settings, ReFrames        : 12 frames
Muxing mode                      : Container
[[email protected]][email protected][/email]
Codec ID                         : V_MPEG4/ISO/AVC
Duration                         : 1h 50mn
Bit rate                         : 2 040 Kbps
Width                            : 1 024 pixels
Height                           : 576 pixels
Display aspect ratio             : 16:9
Frame rate                       : 23.976 fps
Color space                      : YUV
Chroma subsampling               : 4:2:0
Bit depth                        : 8 bits
Scan type                        : Progressive
Bits/(Pixel*Frame)               : 0.144
Stream size                      : 1.52 GiB (71%)
Writing library                  : x264 core 114 r1913 5fd3dce
Encoding settings                : cabac=1 / ref=12 / deblock=1:-3:-3 / analyse=0x3:0x133 / me=umh / subme=10 / psy=1 / psy_rd=1.00:0.00 / mixed_ref=1 / me_range=64 / chroma_me=1 / trellis=2 / 8x8dct=1 / cqm=0 / deadzone=21,11 / fast_pskip=1 / chroma_qp_offset=-2 / threads=6 / sliced_threads=0 / nr=0 / decimate=1 / interlaced=0 / constrained_intra=0 / bframes=6 / b_pyramid=2 / b_adapt=2 / b_bias=0 / direct=3 / weightb=1 / open_gop=0 / weightp=2 / keyint=250 / keyint_min=23 / scenecut=40 / intra_refresh=0 / rc_lookahead=60 / rc=2pass / mbtree=1 / bitrate=2040 / ratetol=1.0 / qcomp=0.60 / qpmin=10 / qpmax=51 / qpstep=4 / cplxblur=20.0 / qblur=0.5 / vbv_maxrate=50000 / vbv_bufsize=50000 / nal_hrd=none / ip_ratio=1.40 / aq=1:1.00
Language                         : English

Audio #1
ID                               : 2
Format                           : AC-3
Format/Info                      : Audio Coding 3
Mode extension                   : CM (complete main)
Muxing mode                      : Header stripping
Codec ID                         : A_AC3
Duration                         : 1h 50mn
Bit rate mode                    : Constant
Bit rate                         : 384 Kbps
Channel(s)                       : 6 channels
Channel positions                : Front: L C R, Side: L R, LFE
Sampling rate                    : 48.0 KHz
Bit depth                        : 16 bits
Stream size                      : 302 MiB (14%)

Audio #2
ID                               : 3
Format                           : AC-3
Format/Info                      : Audio Coding 3
Mode extension                   : CM (complete main)
Muxing mode                      : Header stripping
Codec ID                         : A_AC3
Duration                         : 1h 50mn
Bit rate mode                    : Constant
Bit rate                         : 384 Kbps
Channel(s)                       : 6 channels
Channel positions                : Front: L C R, Side: L R, LFE
Sampling rate                    : 48.0 KHz
Bit depth                        : 16 bits
Stream size                      : 302 MiB (14%)
Title                            : Mandarin AC3 5.1 384Kbps
Language                         : Chinese


PS:UT2.2.1做种,如需要更好的下载速度,建议使用相同版本下载

欢迎加入:1024影片收藏:36683803
         1024影片超级群:65107823(500人)

                                                                                                                                                                                                       

                                                                                                                       
                                                                                                                                                                                                                                                        【轨 迹】炮弹专家[国英双语].torrent (12.94 KB, 下载次数: 86)

回复

使用道具 举报

小黑屋|磁力链接吧 |网站地图

本网站所有资源来自网络,如无意中侵犯了您的权益,请发邮件至 [email protected],立即清除相关链接

GMT+8, 2019-7-21 17:08 , Processed in 0.178830 second(s), 27 queries .

Powered by Discuz! X3.2

© 2001-2013 Comsenz Inc.

快速回复 返回顶部 返回列表