磁力链接吧

 找回密码
 立即注册
搜索

[其他] [喜剧] [2002][香港][爱情][我左眼见到鬼][BD-MKV/2.15G][1024分辨率] 电影 恐怖 ...

[复制链接]
电影首发 发表于 2015-1-3 22:10:17 | 显示全部楼层 |阅读模式


◎译  名 我左眼见到鬼
◎片  名 My Left Eye Sees Ghosts
◎年  代 2002
◎国  家 中国香港
◎类  别 爱情/家庭/恐怖/喜剧
◎语  言 国粤双语
◎IMDB评分  6.8/10(493 votes)
◎IMDB链接  
http://www.imdb.com/title/tt0319901/
◎片  长 101 Mins
◎导  演 杜琪峰 Johnny To
                 韦家辉 Ka-Fai Wai
◎主  演 郑秀文 Sammi Cheng  ....May Ho
      刘青云 Ching Wan Lau  ....Ken Wong
      李珊珊 San-san Lee  ....Susan
      林熙蕾 Kelly Lin  ....Phantom of Sam's girlfriend
      黄文慧 Man-Wai Wong  ....Mrs. Tsui
      林子善 Chi-Sing Lam
      林雪 Suet Lam  ....May's dad
      李枫 Fung Li  ....Exorcist
      林雪 Suet Lam
      司马华龙 Wah Lung Szema  ....Ghost
      王天林 Tian-lin Wang  ....Sam's dad (as Tin Lam Wong)
      任达华 Simon Yam  ....Ben
      应采儿 Cherrie Ying  ....Tina


【视频格式】MKV(X264)
【字      幕】外挂中文
【视频尺寸】1024 x 576

【文件大小】2.15G
【发 布 人】轨 迹
【影片截图】






◎简  介 
      香港鬼片花样最近是越来越多,但也有些影片挂名有鬼实则只是个幌子,细看原来是换了招牌的喜剧片,杜琪峰的这部新作便是这样的一部作品。不过因为有杜琪峰+韦家辉,刘青云+郑秀文这样的金字招牌,因此就算是换了外包装,这样的喜剧仍旧让观众心仪。
  寡妇Sammi家财丰厚,但却有很多缺点。她酗酒、抽烟,外加尖酸刻薄,讲大话更是她的擅长,身为公司的董事,却疏于工作,常常诈病不上班。Sammi的出身并不算好,之所以家财万贯全赖幸运遇到一个英俊、博学又很有钱的完美男人。两人拍拖不久便闪电式结婚,但丈夫却在婚后不久便去世。Sammi继承了丈夫的大笔遗产,因此成了一个有钱的寡妇。别人都说Sammi好命,但她却说自己与丈夫相处时间短没有深情。
  这天,Sammi又随口以自己右眼视网膜脱落为借口向公司请假,“病假”结束后她以纱布敷住右眼上班。但在路上她却遇到有人跳楼自杀,Sammi从此开始有了左眼能看到鬼的异能。各路游魂野鬼得知她有这一功能后,纷纷找上门来请她帮忙实现未了心愿。这些鬼中以青云的事情最多最为惹人厌,但相处多日后Sammi竟对他产生了好感。
  一日,Sammi突发奇想,要青云帮他寻找阴间的丈夫,但青云却没有找到,Sammi因此责怪丈夫不单狠心地丢下自己,还无牵无挂地早早投胎,而青云则踢破Sammi其实一直爱着自己的丈夫,是因为失去丈夫才使得她自暴自弃养成这么多恶习。Sammi决定重新做人,却发现自己的视网膜真的脱落了。手术后,她再也无法见到鬼。从头开始的Sammi再见不到青云,却发现家中有很多青云留下的痕迹,一切仿似当年结婚时的样子,原来青云就是她丈夫的化身。
?杜琪峰还有什么戏不敢拍?
  杜琪峰之所以受到很多影迷的推崇,绝不仅仅是因为一两部影片的成功,象杜琪峰这样几乎什么类型的影片都敢拍的导演理应赢得观众的尊重。动作片、喜剧片,现代故事、古代故事,样样都能拍出感觉来,实在不容易。想来杜琪峰拍动作片和古代的故事不奇怪,当年在无线做电视编导时就拍过《射雕英雄传》和《雪山飞狐》。但最近两年,杜琪峰拍现代喜剧越拍越顺实在有些出人意料,而将一个原本不会演戏的郑秀文捧成喜剧明星,他更是居功至伟。这一次,连他之前很少触及的鬼故事都要尝试一下,真的不得不问一声,杜琪峰还有什么戏不敢拍?
  不过,千万别以为杜琪峰这次是真正大胆尝试拍鬼片,除了角色中有鬼出现之外,其他的地方几乎看不来与他之前的浪漫喜剧有多少不同,鬼只不过是他包装故事的一件新衣。在这件外衣后面,还是他近来最擅长的喜剧。看过了《孤男寡女》和《瘦身男女》的观众一定还在怀念他和郑秀文的合作。如今,杜、郑合作的喜剧再次上演了,除了故事的区别之外,多半还是之前的套路,惊喜或许只能在对老套路的回忆中才能感觉到。
?郑秀文如何被改造?
  Sammi郑秀文自从被杜琪峰的几部戏包装成喜剧天后之后,基本已经被定型为傻而乐天的喜剧形象。每个人都希望自己在事业上有所突破,但不到旧的东西将自己束缚到没有发展余地之时,这种突破发生的可能性极小。郑秀文被杜琪峰发掘出其表情严肃演喜剧的天分,仅凭这个路线她就已能在现在的香港影坛享受大姐的尊称和待遇。改变迟早都会发生,但感觉应该不会是现在。
  也许杜琪峰会想起再次改变一下郑秀文的形象,但片中寡妇的个性似乎是专门为她所设计,恐怕很难指望他会把自己包装出来的喜剧天后再做改造。我们总是希望所有的导演和演员都能突破再突破,但打破旧没有新的推出对谁来说都是一件难以接受的事。
  如果非要求新不可,郑秀文与刘青云的合作,应该算是个喜剧新组合,本身已经具备了相当多的卖点。能在任贤齐和刘德华之后,再找一个合适她的搭档,也许是我们现在对郑秀文最切实际的期望。

Format                           : Matroska
File size                        : 2.16 GiB
Duration                         : 1h 37mn
Overall bit rate                 : 3 163 Kbps
Encoded date                     : UTC 2011-08-16 03:28:59
Writing application              : mkvmerge v2.2.0 ('Turn It On Again') built on Mar  4 2008 12:58:26
Writing library                  : libebml v0.7.7 + libmatroska v0.8.1
Video
ID                               : 1
Format                           : AVC
Format/Info                      : Advanced Video Codec
Format profile                   : mailto:[email protected]
Format settings, CABAC           : Yes
Format settings, ReFrames        : 12 frames
Muxing mode                      : Container [[email protected]][email protected][/email]
Codec ID                         : V_MPEG4/ISO/AVC
Duration                         : 1h 37mn
Bit rate                         : 2 073 Kbps
Width                            : 1 024 pixels
Height                           : 576 pixels
Display aspect ratio             : 16:9
Frame rate                       : 23.976 fps
Color space                      : YUV
Chroma subsampling               : 4:2:0
Bit depth                        : 8 bits
Scan type                        : Progressive
Bits/(Pixel*Frame)               : 0.147
Stream size                      : 1.37 GiB (64%)
Writing library                  : x264 core 114 r1913 5fd3dce
Encoding settings                : cabac=1 / ref=12 / deblock=1:-3:-3 / analyse=0x3:0x133 / me=umh / subme=10 / psy=1 / psy_rd=1.00:0.00 / mixed_ref=1 / me_range=64 / chroma_me=1 / trellis=2 / 8x8dct=1 / cqm=0 / deadzone=21,11 / fast_pskip=1 / chroma_qp_offset=-2 / threads=6 / sliced_threads=0 / nr=0 / decimate=1 / interlaced=0 / constrained_intra=0 / bframes=6 / b_pyramid=2 / b_adapt=2 / b_bias=0 / direct=3 / weightb=1 / open_gop=0 / weightp=2 / keyint=250 / keyint_min=23 / scenecut=40 / intra_refresh=0 / rc_lookahead=60 / rc=2pass / mbtree=1 / bitrate=2073 / ratetol=1.0 / qcomp=0.60 / qpmin=10 / qpmax=51 / qpstep=4 / cplxblur=20.0 / qblur=0.5 / vbv_maxrate=50000 / vbv_bufsize=50000 / nal_hrd=none / ip_ratio=1.40 / aq=1:1.00
Language                         : English
Audio #1
ID                               : 2
Format                           : AC-3
Format/Info                      : Audio Coding 3
Mode extension                   : CM (complete main)
Codec ID                         : A_AC3
Duration                         : 1h 37mn
Bit rate mode                    : Constant
Bit rate                         : 640 Kbps
Channel(s)                       : 6 channels
Channel positions                : Front: L C R, Side: L R, LFE
Sampling rate                    : 48.0 KHz
Bit depth                        : 16 bits
Stream size                      : 447 MiB (20%)
Title                            : Mandarin AC3 5.1 640Kbps
Language                         : Chinese
Audio #2
ID                               : 3
Format                           : AC-3
Format/Info                      : Audio Coding 3
Mode extension                   : CM (complete main)
Codec ID                         : A_AC3
Duration                         : 1h 37mn
Bit rate mode                    : Constant
Bit rate                         : 448 Kbps
Channel(s)                       : 6 channels
Channel positions                : Front: L C R, Side: L R, LFE
Sampling rate                    : 48.0 KHz
Bit depth                        : 16 bits
Stream size                      : 313 MiB (14%)

欢迎加入:1024影片收藏:36683803
         1024影片超级群:65107823(500人)


                                                                                                                                                                                                       

                                                                                                                       
                                                                                                                                                                                                                                                        【轨 迹】我左眼见到鬼[国粤双语].torrent (13.01 KB, 下载次数: 115)

回复

使用道具 举报

小黑屋|磁力链接吧 |网站地图

本网站所有资源来自网络,如无意中侵犯了您的权益,请发邮件至 [email protected],立即清除相关链接

GMT+8, 2019-11-17 14:55 , Processed in 0.158096 second(s), 27 queries .

Powered by Discuz! X3.2

© 2001-2013 Comsenz Inc.

快速回复 返回顶部 返回列表