磁力链接吧

 找回密码
 立即注册
搜索

[其他] [2011][美国][动作][X战警:第一战][BD-MKV2.26G][1024分辨率] 电影 恐怖 ...

[复制链接]
电影首发 发表于 2015-1-3 22:10:16 | 显示全部楼层 |阅读模式


◎译  名 X战警:第一战/X战警:初级/X战警:第一堂课/X战警:第一课/变种特攻:异能第一站
◎片  名 X-Men: First Class
◎年  代 2011
◎国  家 美国
◎类  别 科幻/动作/剧情/冒险/惊悚
◎语  言 英语
◎IMDB评分 8.1/10 (58,417 votes)
◎IMDB链接
http://www.imdb.com/title/tt1270798/
◎导  演 马修·沃恩 Matthew Vaughn
◎主  演 詹姆斯·麦卡沃伊 James McAvoy  ....Professor Charles Xavier
                    迈克尔·法斯宾德 Michael Fassbender  ....Erik Lehnsherr / Magneto
                    詹纽瑞·琼斯 January Jones  ....Emma Frost
                    詹妮弗·劳伦斯 Jennifer Lawrence  ....Raven Darkholme / Mystique
                    萝丝·拜恩 Rose Byrne  ....Dr. Moira MacTaggert
                    尼古拉斯·霍尔特 Nicholas Hoult  ....Hank McCoy / Beast
                    凯文·贝肯 Kevin Bacon  ....Sebastian Shaw
                    佐伊·克拉维兹 Zoe Kravitz  ....Angel Salvadore
                    杰森·弗莱明 Jason Flemyng  ....Azazel
                    卢卡斯·提尔 Lucas Till  ....Alex Summers / Havok
                    摩根·莉莉 Morgan Lily  ....Young Raven Darkholme / Young Mystique
                    艾迪·盖瑟吉 Edi Gathegi  ....Armando Mu?oz / Darwin
                    奥利弗·普莱特 Oliver Platt  ....Man in Black
                    雷·怀斯 Ray Wise  ....Secretary of State of the United States
                    比尔·米尔纳 Bill Milner  ....Young Erik Lehnsherr / Magneto
                    卡赖伯·兰德里·琼斯 Caleb Landry Jones  ....Sean Cassidy / Banshee


【视频格式】MKV(X264)
【字      幕】外挂中文

【视频尺寸】1024 x 436
【文件大小】2.26G

【发 布 人】轨 迹
【影片截图】




◎简  介
      影片将背景设在60年代古巴导弹危机发生时,讲述在变种人未被世人所知的时候,Charles Xavier和Erik Lensherr还没有被人称作“X教授”和“万磁王”。他们只是变种人中最早发现自己超能力的两个年轻人。他们那时也不是对手,而是非常亲密的朋友。两人以及其他几个变种人在一起工作,试图阻止“末日”的到来。但在这个过程中,两人之间出现了裂缝,最终,在万磁王的兄弟会与X教授率领的X战警之间,一场永恒之战开始了……

Format                           : Matroska
File size                        : 2.27 GiB
Duration                         : 2h 11mn
Overall bit rate                 : 2 467 Kbps
Encoded date                     : UTC 2011-08-26 01:38:34
Writing application              : mkvmerge v2.2.0 ('Turn It On Again') built on Mar  4 2008 12:58:26
Writing library                  : libebml v0.7.7 + libmatroska v0.8.1
Video
ID                               : 1
Format                           : AVC
Format/Info                      : Advanced Video Codec
Format profile                   : mailto:[email protected]
Format settings, CABAC           : Yes
Format settings, ReFrames        : 12 frames
Muxing mode                      : Container [[email protected]][email protected][/email]
Codec ID                         : V_MPEG4/ISO/AVC
Duration                         : 2h 11mn
Bit rate                         : 2 024 Kbps
Width                            : 1 024 pixels
Height                           : 436 pixels
Display aspect ratio             : 2.35:1
Frame rate                       : 23.976 fps
Color space                      : YUV
Chroma subsampling               : 4:2:0
Bit depth                        : 8 bits
Scan type                        : Progressive
Bits/(Pixel*Frame)               : 0.189
Stream size                      : 1.81 GiB (80%)
Writing library                  : x264 core 114 r1913 5fd3dce
Encoding settings                : cabac=1 / ref=12 / deblock=1:-3:-3 / analyse=0x3:0x133 / me=umh / subme=10 / psy=1 / psy_rd=1.00:0.00 / mixed_ref=1 / me_range=64 / chroma_me=1 / trellis=2 / 8x8dct=1 / cqm=0 / deadzone=21,11 / fast_pskip=1 / chroma_qp_offset=-2 / threads=6 / sliced_threads=0 / nr=0 / decimate=1 / interlaced=0 / constrained_intra=0 / bframes=6 / b_pyramid=2 / b_adapt=2 / b_bias=0 / direct=3 / weightb=1 / open_gop=0 / weightp=2 / keyint=250 / keyint_min=23 / scenecut=40 / intra_refresh=0 / rc_lookahead=60 / rc=2pass / mbtree=1 / bitrate=2024 / ratetol=1.0 / qcomp=0.60 / qpmin=10 / qpmax=51 / qpstep=4 / cplxblur=20.0 / qblur=0.5 / vbv_maxrate=50000 / vbv_bufsize=50000 / nal_hrd=none / ip_ratio=1.40 / aq=1:1.00
Language                         : English
Audio
ID                               : 2
Format                           : AC-3
Format/Info                      : Audio Coding 3
Mode extension                   : CM (complete main)
Codec ID                         : A_AC3
Duration                         : 2h 11mn
Bit rate mode                    : Constant
Bit rate                         : 448 Kbps
Channel(s)                       : 6 channels
Channel positions                : Front: L C R, Side: L R, LFE
Sampling rate                    : 48.0 KHz
Bit depth                        : 16 bits
Stream size                      : 422 MiB (18%)

PS:UT2.2.1做种,如需要更好的下载速度,建议使用相同版本下载

欢迎加入:1024影片收藏:36683803
         1024影片超级群:65107823(500人)


                                                                                                                                                                                                       

                                                                                                                       
                                                                                                                                                                                                                                                        【轨 迹】X战警:第一战.torrent (13.53 KB, 下载次数: 1931)

回复

使用道具 举报

小黑屋|磁力链接吧 |网站地图

本网站所有资源来自网络,如无意中侵犯了您的权益,请发邮件至 [email protected],立即清除相关链接

GMT+8, 2019-8-21 04:43 , Processed in 0.098514 second(s), 27 queries .

Powered by Discuz! X3.2

© 2001-2013 Comsenz Inc.

快速回复 返回顶部 返回列表