百度云资源论坛

 找回密码
 立即注册
搜索

[其他] [2011][香港][惊悚][迷途追凶][BD-MKV/2.15G][国粤双语][1024分辨率] 电影 恐怖 ...

[复制链接]
电影首发 发表于 2015-1-3 22:10:09 | 显示全部楼层 |阅读模式


◎译  名 迷途追凶/报应(港)
◎片  名 Punished/Bou ying
◎年  代 2011
◎国  家 中国香港
◎类  别 犯罪/惊悚  
◎语  言 国粤双语
◎IMDB评分  5.6/10  (29 votes) 
◎IMDB链接  
http://www.imdb.com/title/tt1604670/
◎片  长 1h:33m:47s
◎导  演 罗永昌 Wing-cheong Law
◎主  演 黄秋生 Anthony Wong Chau-Sang ... Wong Ho-chiu
      文咏珊 Janice Man ... Daisy
      任贤齐 Richie Ren ...  Chor  
      张可颐 Maggie Cheung
      卢巧音 Candy Lo ...  May  
      恭硕良 Jun Kung
      林利 Lin Li
      曹查理 Charlie Cho ...  TK  
      黄一一 Yi-yi Huang
      Lei Lam  ....Pang
      Tsui Chung Shun
      江美仪 Elena Kong  ....Daisy's mother
      林敬刚 King-Kong Lam
      卢文康 Kenny Lo  ....Bodyguard


【视频格式】MKV(X264)
【字      幕】外挂中文
【视频尺寸】1024 x 434

【文件大小】2.15G
【发 布 人】轨 迹
【影片截图】





      
◎简  介

      讲述一个有关富豪家变的故事。黄秋生饰演的富商,仗势横行。女儿突然遭到绑架,富商却以为这是她自导自演的标参戏码,岂料最后女儿竟遭撕票。富商不甘受辱,派出忠心保镖任贤齐为女儿报仇,杀人任务虽然顺利执行,但富商反陷进万劫不复之地。      
     文咏姗在片中饰演黄秋生的女儿,和老爸的关系十分微妙,虽然还是第一次和其他演员合作,但文咏姗十分好学、认真的个性立刻博得了前辈演员们的宠爱,黄秋生这位“老爹”更是对咏栅照顾有加,和片中的老爸简直判若两人。
     小齐任贤齐在之前的作品中都是扮演性格温婉的好好先生,演腻了好人的他这次准备挑战一下动作片,没想到拍打戏却让身体纤弱的小齐累到腰酸背痛,忍不住又回忆起往日轻松拍摄爱情文艺片的美好时光来


Format                           : Matroska
File size                        : 2.16 GiB
Duration                         : 1h 33mn
Overall bit rate                 : 3 298 Kbps
Encoded date                     : UTC 2011-08-28 11:32:16
Writing application              : mkvmerge v2.2.0 ('Turn It On Again') built on Mar  4 2008 12:58:26
Writing library                  : libebml v0.7.7 + libmatroska v0.8.1
Video
ID                               : 1
Format                           : AVC
Format/Info                      : Advanced Video Codec
Format profile                   : mailto:[email protected]
Format settings, CABAC           : Yes
Format settings, ReFrames        : 12 frames
Muxing mode                      : Container [[email protected]][email protected][/email]
Codec ID                         : V_MPEG4/ISO/AVC
Duration                         : 1h 33mn
Bit rate                         : 2 270 Kbps
Width                            : 1 024 pixels
Height                           : 434 pixels
Display aspect ratio             : 2.35:1
Frame rate                       : 23.976 fps
Color space                      : YUV
Chroma subsampling               : 4:2:0
Bit depth                        : 8 bits
Scan type                        : Progressive
Bits/(Pixel*Frame)               : 0.213
Stream size                      : 1.45 GiB (67%)
Writing library                  : x264 core 114 r1913 5fd3dce
Encoding settings                : cabac=1 / ref=12 / deblock=1:-3:-3 / analyse=0x3:0x133 / me=umh / subme=10 / psy=1 / psy_rd=1.00:0.00 / mixed_ref=1 / me_range=64 / chroma_me=1 / trellis=2 / 8x8dct=1 / cqm=0 / deadzone=21,11 / fast_pskip=1 / chroma_qp_offset=-2 / threads=3 / sliced_threads=0 / nr=0 / decimate=1 / interlaced=0 / constrained_intra=0 / bframes=6 / b_pyramid=2 / b_adapt=2 / b_bias=0 / direct=3 / weightb=1 / open_gop=0 / weightp=2 / keyint=250 / keyint_min=23 / scenecut=40 / intra_refresh=0 / rc_lookahead=60 / rc=2pass / mbtree=1 / bitrate=2270 / ratetol=1.0 / qcomp=0.60 / qpmin=10 / qpmax=51 / qpstep=4 / cplxblur=20.0 / qblur=0.5 / vbv_maxrate=50000 / vbv_bufsize=50000 / nal_hrd=none / ip_ratio=1.40 / aq=1:1.00
Language                         : English
Audio #1
ID                               : 2
Format                           : AC-3
Format/Info                      : Audio Coding 3
Mode extension                   : CM (complete main)
Codec ID                         : A_AC3
Duration                         : 1h 33mn
Bit rate mode                    : Constant
Bit rate                         : 640 Kbps
Channel(s)                       : 6 channels
Channel positions                : Front: L C R, Side: L R, LFE
Sampling rate                    : 48.0 KHz
Bit depth                        : 16 bits
Stream size                      : 429 MiB (19%)
Title                            : 国语
Language                         : Chinese
Audio #2
ID                               : 3
Format                           : AC-3
Format/Info                      : Audio Coding 3
Mode extension                   : CM (complete main)
Codec ID                         : A_AC3
Duration                         : 1h 33mn
Bit rate mode                    : Constant
Bit rate                         : 384 Kbps
Channel(s)                       : 6 channels
Channel positions                : Front: L C R, Side: L R, LFE
Sampling rate                    : 48.0 KHz
Bit depth                        : 16 bits
Stream size                      : 258 MiB (12%)

欢迎加入:1024影片收藏:36683803
         1024影片超级群:65107823(500人)

                                                                                                                                                                                                       

                                                                                                                       
                                                                                                                                                                                                                                                        【轨 迹】迷途追凶 [国粤双语].torrent (13.13 KB, 下载次数: 90)

回复

使用道具 举报

小黑屋|磁力链接吧 |网站地图

本网站所有资源来自网络,如无意中侵犯了您的权益,请发邮件至 [email protected],立即清除相关链接

GMT+8, 2019-7-21 18:11 , Processed in 0.116404 second(s), 27 queries .

Powered by Discuz! X3.2

© 2001-2013 Comsenz Inc.

快速回复 返回顶部 返回列表