磁力链接吧

 找回密码
 立即注册
搜索

[其他] [2011][美国][动作][汉娜][BD-MKV/2.15G][英语中字][1024分辨率] 电影 恐怖 ...

[复制链接]
电影首发 发表于 2015-1-3 22:10:07 | 显示全部楼层 |阅读模式


【影片原名】Hanna
【中文译名】汉娜/少女杀手的奇幻旅程/杀神少女:汉娜
【出品公司】焦点电影公司
【出品年代】2011 年
【上映日期】2011年4月8日 美国        
【影片级别】USA: PG-13
【官方网站】
http://hannathemovie.com/
【IMDB链接】http://www.imdb.com/title/tt0993842
【IMDB评分】7.3/10 (13,885 votes)
【国  家】美国/英国/德国
【类  别】动作/惊悚/冒险
【导  演】乔·怀特 Joe Wright
【主  演】西尔莎·罗南 Saoirse Ronan  ....Hanna
      艾瑞克·巴纳 Eric Bana  ....Erik
      凯特·布兰切特 Cate Blanchett  ....Marissa
      Vicky Krieps  ....Johanna Zadek
      Paris Arrowsmith  ....CIA Tech #1
      Jon Macmilla  ....Lewis
      Tim Beckmann  ....Walt
      Christian Malcolm  ....Head of Ops
      Jamie Beamish  ....Burton
      Tom Hodgkins  ....Monitor
      Vincent Montuel  ....Camp G Doctor #1
      Nathan Nolan  ....Camp G Doctor #2
      米歇尔·道克瑞 Michelle Dockery  ....False Marissa
      杰西卡·巴登 Jessica Barden  ....Sophie
      Aldo Maland  ....Miles
      奥莉维亚·威廉姆斯 Olivia Williams  ....Rachel
      杰森·弗莱明 Jason Flemyng  ....Sebastian
      Mohamed Majd  ....Moroccan Hotel Owner
      汤姆·霍兰德 Tom Hollander  ....Isaacs
      Sebastian Hülk  ....Titch
      乔尔·巴斯曼 Joel Basman  ....Razor
      Mathias Harrebye-Brandt  ....Danish Policeman
      阿尔瓦罗·塞万堤斯 ?lvaro Cervantes  ....Feliciano
      Marc Soto  ....Feliciano's Brother
      Gudrun Ritter  ....Katrin Zadeck
      马丁·乌特克 Martin Wuttke  ....Knepfler
      Paul Birchard  ....Bob (uncredited)


【视频格式】MKV(X264)
【字      幕】外挂中文
【视频尺寸】1024 x 428

【文件大小】2.15G
【发 布 人】
轨 迹
【影片截图】





【内容简介】
   位于北极圈附近的冰原森林,生活着一对平凡却有着非凡身手的父女。父亲艾利克·海勒(Eric Bana 饰)曾是受雇于CIA的特工,在上世纪90年代活跃于东欧和中亚等地,具有丰富的经验。然而最终却因为某种原因,令他带着女儿汉娜隐居在这人类罕至的寒冷所在。经过十多年的艰苦磨练,汉娜(Saoirse Ronan 饰)终于成长为拥有广博知识和出色身手的战斗少女。
   某天,自认已做好准备的汉娜按下了父亲那台信号发射器,不久美国方面便收到消息。艾利克当年的联系人玛丽莎(Cate Blanchett 饰)声称这个消失多年的特工掌握非常敏感的秘密,于是在她的主持下,一场居心叵测的围捕旋即展开。汉娜也已柔弱的身躯投入了血腥的战斗之中……

File size                        : 2.16 GiB
Duration                         : 1h 51mn
Overall bit rate                 : 2 784 Kbps
Encoded date                     : UTC 2011-08-28 11:25:53
Writing application              : mkvmerge v2.2.0 ('Turn It On Again') built on Mar  4 2008 12:58:26
Writing library                  : libebml v0.7.7 + libmatroska v0.8.1
Video
ID                               : 1
Format                           : AVC
Format/Info                      : Advanced Video Codec
Format profile                   : mailto:[email protected]
Format settings, CABAC           : Yes
Format settings, ReFrames        : 12 frames
Muxing mode                      : Container [[email protected]][email protected][/email]
Codec ID                         : V_MPEG4/ISO/AVC
Duration                         : 1h 51mn
Bit rate                         : 2 333 Kbps
Width                            : 1 024 pixels
Height                           : 428 pixels
Display aspect ratio             : 2.35:1
Frame rate                       : 23.976 fps
Color space                      : YUV
Chroma subsampling               : 4:2:0
Bit depth                        : 8 bits
Scan type                        : Progressive
Bits/(Pixel*Frame)               : 0.222
Stream size                      : 1.77 GiB (82%)
Writing library                  : x264 core 114 r1913 5fd3dce
Encoding settings                : cabac=1 / ref=12 / deblock=1:-3:-3 / analyse=0x3:0x133 / me=umh / subme=10 / psy=1 / psy_rd=1.00:0.00 / mixed_ref=1 / me_range=64 / chroma_me=1 / trellis=2 / 8x8dct=1 / cqm=0 / deadzone=21,11 / fast_pskip=1 / chroma_qp_offset=-2 / threads=3 / sliced_threads=0 / nr=0 / decimate=1 / interlaced=0 / constrained_intra=0 / bframes=6 / b_pyramid=2 / b_adapt=2 / b_bias=0 / direct=3 / weightb=1 / open_gop=0 / weightp=2 / keyint=250 / keyint_min=23 / scenecut=40 / intra_refresh=0 / rc_lookahead=60 / rc=2pass / mbtree=1 / bitrate=2333 / ratetol=1.0 / qcomp=0.60 / qpmin=10 / qpmax=51 / qpstep=4 / cplxblur=20.0 / qblur=0.5 / vbv_maxrate=50000 / vbv_bufsize=50000 / nal_hrd=none / ip_ratio=1.40 / aq=1:1.00
Language                         : English
Audio
ID                               : 2
Format                           : AC-3
Format/Info                      : Audio Coding 3
Mode extension                   : CM (complete main)
Codec ID                         : A_AC3
Duration                         : 1h 51mn
Bit rate mode                    : Constant
Bit rate                         : 448 Kbps
Channel(s)                       : 6 channels
Channel positions                : Front: L C R, Side: L R, LFE
Sampling rate                    : 48.0 KHz
Bit depth                        : 16 bits
Stream size                      : 356 MiB (16%)

欢迎加入:1024影片收藏:36683803
         1024影片超级群:65107823(500人)

                                                                                                                                                                                                       

                                                                                                                       
                                                                                                                                                                                                                                                        【轨 迹】汉娜.torrent (12.99 KB, 下载次数: 69)

回复

使用道具 举报

小黑屋|磁力链接吧 |网站地图

本网站所有资源来自网络,如无意中侵犯了您的权益,请发邮件至 [email protected],立即清除相关链接

GMT+8, 2019-11-13 09:40 , Processed in 0.077739 second(s), 27 queries .

Powered by Discuz! X3.2

© 2001-2013 Comsenz Inc.

快速回复 返回顶部 返回列表