磁力链接吧

 找回密码
 立即注册
搜索

[动作片] 扑克之夜 Poker.Night.2014.720p.WEB-DL.DD5.1.H264-RARBG 3.16GB

[复制链接]
电影首发 发表于 2015-1-3 17:50:00 | 显示全部楼层 |阅读模式

◎译  名 扑克之夜
◎片  名 Poker Night  
◎年  代 2014
◎国  家 加拿大/美国
◎类  别 动作/犯罪/惊悚
◎语  言 英语
◎字  幕 英文
◎IMDB评分 7.0/10 from 51 users  
◎IMDB链接 http://www.imdb.com/title/tt2548208/
◎片  长 1h 45mn
◎导  演 Greg Francis
◎主  演 博·米尔乔夫 Beau Mirchoff ...Jeter
                    朗·普尔曼 Ron Perlman ...Calabrese
                    吉安卡罗·埃斯波西托 Giancarlo Esposito ...Bernard
                    科里·拉奇 Corey Large ...Davis
                    提图斯·维里沃 Titus Welliver ...Maxwell
                    豪斯顿·塞奇 Halston Sage ...Amy
                    朗·埃达德 Ron Eldard ...Cunningham
                    迈克尔·艾克朗德 Michael Eklund   
                    Kieran Large ...Shawn Allen  
                    Mitchell Baker ...Bob Fisher
                    Lauren Donnelly ...Reporter
                    Rikki Gagne ...Shawn's Mother
                    Chad Krowchuk ...Mr.Bootles
                    洛奇林·莫罗 Lochlyn Munro ...Munson
                    Grizz Salzl ...Shawn's Father  








◎简  介 


  故事的主角是年轻警探杰特与他的女友。作为一个印第安纳州的菜鸟警察,杰特照例前去参加“扑克之夜”。在“扑克之夜”上,他与州内几位最好的警官一起打扑克,警官们把他们自己遇到的故事,自己的成功和失败告诉他。一日杰特与女友遭到一名凶恶的变态罪犯绑架,头戴面具的绑架犯将两人锁在地下室里,杰特将利用“扑克之夜”上学来的办法,从这场危险的猫鼠游戏中逃出生天,并救出自己的女友。





  • Video
  • ID                                       : 1
  • Format                                   : AVC
  • Format/Info                              : Advanced Video Codec
  • Format profile                           : [email protected]
  • Format settings, CABAC                   : No
  • Format settings, ReFrames                : 2 frames
  • Codec ID                                 : V_MPEG4/ISO/AVC
  • Duration                                 : 1h 45mn
  • Bit rate                                 : 3 833 Kbps
  • Width                                    : 1 280 pixels
  • Height                                   : 528 pixels
  • Display aspect ratio                     : 2.40:1
  • Frame rate mode                          : Constant
  • Frame rate                               : 23.976 fps
  • Color space                              : YUV
  • Chroma subsampling                       : 4:2:0
  • Bit depth                                : 8 bits
  • Scan type                                : Progressive
  • Bits/(Pixel*Frame)                       : 0.237
  • Stream size                              : 2.81 GiB (89%)
  • Title                                    : Poker.Night.2014.720p.WEB-DL.DD5.1.H264-RARBG
  • Language                                 : English
  • Default                                  : Yes
  • Forced                                   : No
  • Color primaries                          : BT.709
  • Transfer characteristics                 : BT.709
  • Matrix coefficients                      : BT.709


  • Audio
  • ID                                       : 2
  • Format                                   : AC-3
  • Format/Info                              : Audio Coding 3
  • Mode extension                           : CM (complete main)
  • Format settings, Endianness              : Big
  • Codec ID                                 : A_AC3
  • Duration                                 : 1h 45mn
  • Bit rate mode                            : Constant
  • Bit rate                                 : 384 Kbps
  • Channel(s)                               : 6 channels
  • Channel positions                        : Front: L C R, Side: L R, LFE
  • Sampling rate                            : 48.0 KHz
  • Bit depth                                : 16 bits
  • Compression mode                         : Lossy
  • Stream size                              : 289 MiB (9%)
  • Title                                    : Poker.Night.2014.720p.WEB-DL.DD5.1.H264-RARBG
  • Language                                 : English
  • Default                                  : Yes
  • Forced                                   : No


  • Text
  • ID                                       : 3
  • Format                                   : UTF-8
  • Codec ID                                 : S_TEXT/UTF8
  • Codec ID/Info                            : UTF-8 Plain Text
  • Language                                 : English
  • Default                                  : No
  • Forced                                   : No






                                                                                                                                                                                                       

                                                                                                                       
                                                                                                                                                                                                                                                        Poker.Night.2014.720p.WEB-DL.DD5.1.H264-RARBG.torrent (16.79 KB, 下载次数: 139)

回复

使用道具 举报

小黑屋|磁力链接吧 |网站地图

本网站所有资源来自网络,如无意中侵犯了您的权益,请发邮件至 [email protected],立即清除相关链接

GMT+8, 2019-11-12 15:55 , Processed in 0.064660 second(s), 27 queries .

Powered by Discuz! X3.2

© 2001-2013 Comsenz Inc.

快速回复 返回顶部 返回列表