磁力链接吧

 找回密码
 立即注册
搜索

法官老爹/辩父律师/大法官 The.Judge.2014.1080p.WEB-DL.DD5.1.H264-RARBG 4.29GB ... ...

[复制链接]
电影首发 发表于 2015-1-1 16:53:00 | 显示全部楼层 |阅读模式

◎译  名 法官老爹/辩父律师(港)/大法官(台)/法官老爸
◎片  名 The Judge
◎年  代 2014
◎国  家 美国
◎类  别 剧情
◎语  言 英语
◎字  幕 N/A
◎IMDB评分 7.6/10 from 29,335 users
◎IMDB链接 http://www.imdb.com/title/tt1872194/
◎片  长 2h 21mn
◎导  演 大卫·道金
◎主  演 小罗伯特·唐尼
                     维拉·法米加
      莉顿·梅斯特
      文森特·多诺费奥
      比利·鲍伯·松顿
      罗伯特·杜瓦尔
      莎拉·兰卡斯特
      戴克斯·夏普德
      大卫·克鲁霍尔特兹
      艾玛·特伦布莱
      巴萨扎·盖提
      伊恩·尼尔森
      格蕾丝·扎布里斯基
      肯·霍华德

◎简  介 

  该片讲述的是小罗伯特·唐尼饰演的一名成功律师回家乡参加母亲的葬礼,但随着他与亲朋好友的接触中,他感觉自己的父亲有杀人的嫌疑,并且他父亲还是当地德高望重的法官,这一切都让父子俩的关系蒙上阴影。



法官老爹 The Judge 获奖情况
第72届金球奖 (2015)


电影类 最佳男配角(提名) 罗伯特·杜瓦尔
第39届多伦多国际电影节 (2014)


观众选择奖(提名) 大卫·道金
第18届好莱坞电影奖 (2014)


年度男配角 罗伯特·杜瓦尔



  • Video
  • ID                                       : 1
  • Format                                   : AVC
  • Format/Info                              : Advanced Video Codec
  • Format profile                           : [email protected]
  • Format settings, CABAC                   : Yes
  • Format settings, ReFrames                : 5 frames
  • Codec ID                                 : V_MPEG4/ISO/AVC
  • Duration                                 : 2h 21mn
  • Bit rate                                 : 3 873 Kbps
  • Width                                    : 1 912 pixels
  • Height                                   : 796 pixels
  • Display aspect ratio                     : 2.40:1
  • Frame rate mode                          : Constant
  • Frame rate                               : 23.976 fps
  • Color space                              : YUV
  • Chroma subsampling                       : 4:2:0
  • Bit depth                                : 8 bits
  • Scan type                                : Progressive
  • Bits/(Pixel*Frame)                       : 0.106
  • Stream size                              : 3.83 GiB (89%)
  • Title                                    : The.Judge.2014.1080p.WEB-DL.DD5.1.H264-RARBG
  • Language                                 : English
  • Default                                  : Yes
  • Forced                                   : No
  • Color primaries                          : BT.709
  • Transfer characteristics                 : BT.709
  • Matrix coefficients                      : BT.709


  • Audio
  • ID                                       : 2
  • Format                                   : AC-3
  • Format/Info                              : Audio Coding 3
  • Mode extension                           : CM (complete main)
  • Format settings, Endianness              : Big
  • Codec ID                                 : A_AC3
  • Duration                                 : 2h 21mn
  • Bit rate mode                            : Constant
  • Bit rate                                 : 384 Kbps
  • Channel(s)                               : 6 channels
  • Channel positions                        : Front: L C R, Side: L R, LFE
  • Sampling rate                            : 48.0 KHz
  • Bit depth                                : 16 bits
  • Compression mode                         : Lossy
  • Stream size                              : 389 MiB (9%)
  • Title                                    : The.Judge.2014.1080p.WEB-DL.DD5.1.H264-RARBG
  • Language                                 : English
  • Default                                  : Yes
  • Forced                                   : No


  • Text
  • ID                                       : 3
  • Format                                   : UTF-8
  • Codec ID                                 : S_TEXT/UTF8
  • Codec ID/Info                            : UTF-8 Plain Text
  • Language                                 : English
  • Default                                  : Yes
  • Forced                                   : No


  • Menu
  • 00:00:00.000                             : en:1
  • 00:11:58.000                             : en:2
  • 00:20:46.000                             : en:3
  • 00:31:21.000                             : en:4
  • 00:41:05.000                             : en:5
  • 00:50:42.000                             : en:6
  • 00:59:43.000                             : en:7
  • 01:09:24.000                             : en:8
  • 01:20:00.000                             : en:9
  • 01:28:33.000                             : en:10
  • 01:40:18.000                             : en:11
  • 01:51:38.000                             : en:12
  • 02:01:29.000                             : en:13
  • 02:10:55.000                             : en:14
  • 02:14:50.000                             : en:15






                                                                                                                                                                                                       

                                                                                                                       
                                                                                                                                                                                                                                                        The.Judge.2014.1080p.WEB-DL.DD5.1.H264-RARBG.torrent (11.73 KB, 下载次数: 77)

回复

使用道具 举报

小黑屋|磁力链接吧 |网站地图

本网站所有资源来自网络,如无意中侵犯了您的权益,请发邮件至 [email protected],立即清除相关链接

GMT+8, 2021-4-20 07:53 , Processed in 0.095868 second(s), 26 queries .

Powered by Discuz! X3.2

© 2001-2013 Comsenz Inc.

快速回复 返回顶部 返回列表