磁力链接吧

 找回密码
 立即注册
搜索

[剧情片] The.Sublime.and.the.Beautiful.2014.720p.WEB-DL.DD5.1.H264-RARBG 2.83GB

[复制链接]
电影首发 发表于 2015-1-1 16:48:00 | 显示全部楼层 |阅读模式

◎译  名 
◎片  名 The.Sublime.and.the.Beautiful
◎年  代 2014
◎国  家 美国
◎类  别 剧情
◎语  言 英语
◎字  幕 N/A
◎IMDB评分 7.6/10 from 79 users   
◎IMDB链接 http://www.imdb.com/title/tt2271685/
◎片  长 95 Min
◎导  演 布莱克罗宾斯
◎主  演 布莱克罗宾斯…戴维康拉德
      劳拉柯克…凯莉康拉德
      Matthew Del Negro ... Mike Embree
      Anastasia Baranova ... Katie
      Matthew Boyle ... Student
      Chris Bylsma ... Student
      Joe Carey ... Father Lynch
      迈克尔D.科菲…堪萨斯迈克


◎简  介 


       David Conrad is a college professor and sometimes philanderer raising three children in a small Kansas suburb with his wife Kelly. When sudden tragedy strikes the
family in the days before Christmas| David and Kelly's marriage is brought to its breaking point and David's desire for retribution leads him into uncharted moral
territory with the question: what can we forgive?



  • Video
  • ID                                       : 1
  • Format                                   : AVC
  • Format/Info                              : Advanced Video Codec
  • Format profile                           : [email protected]
  • Format settings, CABAC                   : No
  • Format settings, ReFrames                : 2 frames
  • Format settings, GOP                     : N=1
  • Codec ID                                 : V_MPEG4/ISO/AVC
  • Duration                                 : 1h 33mn
  • Bit rate                                 : 3 864 Kbps
  • Width                                    : 1 268 pixels
  • Height                                   : 720 pixels
  • Display aspect ratio                     : 16:9
  • Frame rate mode                          : Constant
  • Frame rate                               : 23.976 fps
  • Color space                              : YUV
  • Chroma subsampling                       : 4:2:0
  • Bit depth                                : 8 bits
  • Scan type                                : Progressive
  • Bits/(Pixel*Frame)                       : 0.177
  • Stream size                              : 2.52 GiB (89%)
  • Title                                    : The.Sublime.and.the.Beautiful.2014.720p.WEB-DL.DD5.1.H264-RARBG
  • Language                                 : English
  • Default                                  : Yes
  • Forced                                   : No
  • Color primaries                          : BT.709
  • Transfer characteristics                 : BT.709
  • Matrix coefficients                      : BT.709


  • Audio
  • ID                                       : 2
  • Format                                   : AC-3
  • Format/Info                              : Audio Coding 3
  • Mode extension                           : CM (complete main)
  • Format settings, Endianness              : Big
  • Codec ID                                 : A_AC3
  • Duration                                 : 1h 33mn
  • Bit rate mode                            : Constant
  • Bit rate                                 : 384 Kbps
  • Channel(s)                               : 6 channels
  • Channel positions                        : Front: L C R, Side: L R, LFE
  • Sampling rate                            : 48.0 KHz
  • Bit depth                                : 16 bits
  • Compression mode                         : Lossy
  • Stream size                              : 256 MiB (9%)
  • Title                                    : The.Sublime.and.the.Beautiful.2014.720p.WEB-DL.DD5.1.H264-RARBG
  • Language                                 : English
  • Default                                  : Yes
  • Forced                                   : No


  • Text
  • ID                                       : 3
  • Format                                   : UTF-8
  • Codec ID                                 : S_TEXT/UTF8
  • Codec ID/Info                            : UTF-8 Plain Text
  • Language                                 : English
  • Default                                  : No
  • Forced                                   : No


  • Menu
  • 00:00:00.000                             : en:Opening Sequence
  • 00:06:41.000                             : en:Coming Over For Christmas
  • 00:11:54.000                             : en:We\'re All Missing You
  • 00:19:05.000                             : en:In That Room
  • 00:24:42.000                             : en:Funeral
  • 00:30:42.000                             : en:I\'d Say It
  • 00:35:56.000                             : enawn Shop
  • 00:42:20.000                             : en:Shotgun Practice
  • 00:49:03.000                             : en:I\'m So Sorry
  • 00:55:38.000                             : en:How\'s Your Family?
  • 01:00:34.000                             : en:Lend You An Ear
  • 01:04:22.000                             : en:Why I\'m Here
  • 01:09:24.000                             : en:He Died
  • 01:15:41.000                             : en:Strip Club
  • 01:20:40.000                             : en:When Do You Leave?
  • 01:26:47.000                             : en:End Credits






                                                                                                                                                                                                       

                                                                                                                       
                                                                                                                                                                                                                                                        The.Sublime.and.the.Beautiful.2014.720p.WEB-DL.DD5.1.H264-RARBG.torrent (15.13 KB, 下载次数: 74)

回复

使用道具 举报

小黑屋|磁力链接吧 |网站地图

本网站所有资源来自网络,如无意中侵犯了您的权益,请发邮件至 [email protected],立即清除相关链接

GMT+8, 2021-4-20 07:50 , Processed in 0.134779 second(s), 26 queries .

Powered by Discuz! X3.2

© 2001-2013 Comsenz Inc.

快速回复 返回顶部 返回列表