磁力链接吧

 找回密码
 立即注册
搜索

嗜育者/侵密殺機 Breeder.2020.1080p.BluRay.x264-ORBS 13.47GB

[复制链接]
百度云资源 发表于 2021-3-10 11:27:29 | 显示全部楼层 |阅读模式
-->
帖子完整标题:嗜育者/侵密殺機 Breeder.2020.1080p.BluRay.x264-ORBS 13.47GB


[/url]

◎译  名 嗜育者/侵密殺機(台)
◎片  名 Breeder
◎年  代 2020
◎产  地 丹麦
◎类  别 惊悚 / 恐怖
◎语  言 丹麦语
◎上映日期 
◎IMDb评分  5.6/10 from 621 users
◎  
◎豆瓣评分 4.6/10 from 202 users
◎ 
◎导  演 延斯·达尔 Jens Dahl
◎主  演 莎拉·约尔特·蒂特莱芙瑟 Sara Hjort Ditlevsen
       莫腾·霍尔斯特 Morten Holst

◎标  签 丹麦 | 犯罪 | 惊悚 | 2020 | 恐怖 | 丹麦电影 | 电影 | 变蛋坏蛋蠢蛋

◎简  介

  一位經營保健品公司的無情女老闆,不斷綁架年輕女性,對她們進行可怕的基因改造,以獲得返老還童之術。當米雅前往調查時,落入對方手中,隨後被關在陰暗的地下室,身體被打上烙印,受盡折磨。熟悉的面孔開始出現,米雅發現自己並不孤單。她是否能找回內心的力量,逃離這場噩夢?
Video
ID                                       : 1
Format                                   : AVC
Format/Info                              : Advanced Video Codec
Format profile                           :
Format settings                          : CABAC / 5 Ref Frames
Format settings, CABAC                   : Yes
Format settings, Reference frames        : 5 frames
Codec ID                                 : V_MPEG4/ISO/AVC
Duration                                 : 1 h 47 min
Bit rate                                 : 16.0 Mb/s
Width                                    : 1 920 pixels
Height                                   : 806 pixels
Display aspect ratio                     : 2.40:1
Frame rate mode                          : Constant
Frame rate                               : 23.976 (24000/1001/189150) FPS
Color space                              : YUV
Chroma subsampling                       : 4:2:0
Bit depth                                : 8 bits
Scan type                                : Progressive
Bits/(Pixel*Frame)                       : 0.431
Stream size                              : 12.0 GiB (89%)
Writing library                          : x264 core 161 r3048 b86ae3c
Encoding settings                        : cabac=1 / ref=5 / deblock=1:-3:-3 / analyse=0x3:0x133 / me=umh / subme=10 / psy=1 / psy_rd=1.20:0.00 / mixed_ref=1 / me_range=24 / chroma_me=1 / trellis=2 / 8x8dct=1 / cqm=0 / deadzone=21,11 / fast_pskip=0 / chroma_qp_offset=-2 / threads=24 / lookahead_threads=4 / sliced_threads=0 / nr=0 / decimate=0 / interlaced=0 / bluray_compat=0 / constrained_intra=0 / bframes=8 / b_pyramid=2 / b_adapt=2 / b_bias=0 / direct=3 / weightb=1 / open_gop=0 / weightp=2 / keyint=250 / keyint_min=23 / scenecut=40 / intra_refresh=0 / rc_lookahead=60 / rc=crf / mbtree=1 / crf=16.0 / qcomp=0.60 / qpmin=0 / qpmax=69 / qpstep=4 / ip_ratio=1.40 / aq=3:0.90
Default                                  : Yes
Forced                                   : No
Color range                              : Limited
Matrix coefficients                      : BT.709

Audio
ID                                       : 2
Format                                   : DTS XLL
Format/Info                              : Digital Theater Systems
Commercial name                          : DTS-HD Master Audio
Codec ID                                 : A_DTS
Duration                                 : 1 h 47 min
Bit rate mode                            : Variable
Bit rate                                 : 1 933 kb/s
Channel(s)                               : 6 channels
Channel layout                           : C L R Ls Rs LFE
Sampling rate                            : 48.0 kHz
Frame rate                               : 93.750 FPS (512 SPF)
Bit depth                                : 16 bits
Compression mode                         : Lossless
Stream size                              : 1.45 GiB (11%)
Language                                 : Danish
Default                                  : Yes
Forced                                   : No

Text #1
ID                                       : 3
Format                                   : UTF-8
Codec ID                                 : S_TEXT/UTF8
Codec ID/Info                            : UTF-8 Plain Text
Duration                                 : 1 h 43 min
Bit rate                                 : 22 b/s
Count of elements                        : 507
Stream size                              : 17.3 KiB (0%)
Title                                    : English (Forced)
Language                                 : English
Default                                  : Yes
Forced                                   : Yes

Text #2
ID                                       : 4
Format                                   : PGS
Muxing mode                              : zlib
Codec ID                                 : S_HDMV/PGS
Codec ID/Info                            : Picture based subtitle format used on BDs/HD-DVDs
Duration                                 : 1 h 43 min
Bit rate                                 : 14.6 kb/s
Count of elements                        : 1014
Stream size                              : 10.8 MiB (0%)
Language                                 : English
Default                                  : No
Forced                                   : No

Menu
00:00:00.000                             : en:Chapter 01
00:08:50.864                             : en:Chapter 02
00:19:28.417                             : en:Chapter 03
00:30:22.738                             : en:Chapter 04
00:37:51.895                             : en:Chapter 05
00:50:12.426                             : en:Chapter 06
00:59:59.596                             : en:Chapter 07
01:10:46.451                             : en:Chapter 08
01:19:01.111                             : en:Chapter 09
01:29:07.259                             : en:Chapter 10
01:41:48.394                             : en:Chapter 11
[/url]



                                                                                                                                                                                                        
                                                                                                                                                                                                                                                                                                                                                                                                                                                                                                                                                                                                                                                                                                                                                                                                                                                        
cd9b53b1118b0dd9bb93e501ffacbefc.zip (68 KB, 下载次数: 3)

回复

使用道具 举报

小黑屋|磁力链接吧 |网站地图

本网站所有资源来自网络,如无意中侵犯了您的权益,请发邮件至 [email protected],立即清除相关链接

GMT+8, 2021-4-16 10:04 , Processed in 0.120109 second(s), 22 queries .

Powered by Discuz! X3.2

© 2001-2013 Comsenz Inc.

快速回复 返回顶部 返回列表