磁力链接吧

 找回密码
 立即注册
搜索

[BD-4K] 圣诞前夜 The.Night.Before.2015.2160p.AMZN.WEB-DL.x265.10bit.HDR10Plus.DTS...

[复制链接]
百度云资源 发表于 2021-3-10 10:37:02 | 显示全部楼层 |阅读模式
-->
帖子完整标题:圣诞前夜 The.Night.Before.2015.2160p.AMZN.WEB-DL.x265.10bit.HDR10Plus.DTS-HD.MA.5.1-SWTYBLZ 12.50GB


[/url]

◎译  名 圣诞前夜/X-Mas/今夜玩到趴(台)/前一夜/圣诞节/昨夜
◎片  名 The Night Before
◎年  代 2015
◎产  地 美国
◎类  别 喜剧
◎语  言 英语
◎上映日期 2015-11-20(美国)
◎IMDb评分  6.4/10 from 67283 users
◎  
◎豆瓣评分 6.1/10 from 3326 users
◎ 
◎片  长 101分钟
◎导  演 乔纳森·莱文 Jonathan Levine
◎编  剧 乔纳森·莱文 Jonathan Levine / 埃文·戈德堡 Evan Goldberg / 凯尔·亨特 Kyle Hunter / 艾瑞尔·沙福 Ariel Shaffir
◎主  演 约瑟夫·高登-莱维特 Joseph Gordon-Levitt
       塞斯·罗根 Seth Rogen
       安东尼·麦凯 Anthony Mackie
       吉莉恩·贝尔 Jillian Bell
       丽兹·卡潘 Lizzy Caplan
       迈克尔·珊农 Michael Shannon
       敏迪·卡灵 Mindy Kaling
       詹姆斯·弗兰科 James Franco
       坎耶·威斯特 Kanye West
       麦莉·赛勒斯 Miley Cyrus
       洛莱妮·图桑特 Lorraine Toussaint
       西奥多拉·伍利 Theodora Woolley
       海伦娜·约克 Heléne Yorke
       阿隆·希尔 Aaron Hill
       娜塔莉·奈普 Natalie Knepp
       巴朗·戴维斯 Baron Davis
       兰道尔·朴 Randall Park
       伊拉纳·格雷泽 Ilana Glazer

◎标  签 喜剧 | 美国 | 2015 | 圣诞 | 囧瑟夫 | 搞笑 | 黑色幽默 | 成长

◎简  介

  塞斯·罗根和约瑟夫·高登-莱维特再次联手[抗癌的我]导演乔纳森·莱文,合作[圣诞节](Xmas,暂译)。影片讲述三位发小在圣诞前夜,举办例行聚会的故事。
Video
ID                                       : 1
Format                                   : HEVC
Format/Info                              : High Efficiency Video Coding
Format profile                           : Main @Main
HDR format                               : SMPTE ST 2094 App 4, Version 1, HDR10+ Profile B compatible
Codec ID                                 : V_MPEGH/ISO/HEVC
Duration                                 : 1 h 41 min
Bit rate                                 : 14.8 Mb/s
Width                                    : 3 840 pixels
Height                                   : 1 600 pixels
Display aspect ratio                     : 2.40:1
Frame rate mode                          : Constant
Frame rate                               : 23.976 (24000/1001/189150) FPS
Color space                              : YUV
Chroma subsampling                       : 4:2:0
Bit depth                                : 10 bits
Bits/(Pixel*Frame)                       : 0.100
Stream size                              : 10.4 GiB (84%)
Default                                  : Yes
Forced                                   : No
Color range                              : Limited
Color primaries                          : BT.2020
Transfer characteristics                 : PQ
Matrix coefficients                      : BT.2020 non-constant
Mastering display color primaries        : Display P3
Mastering display luminance              : min: 0.0050 cd/m2, max: 4000 cd/m2
Maximum Content Light Level              : 10000 cd/m2
Maximum Frame-Average Light Level        : 1229 cd/m2

Audio #1
ID                                       : 2
Format                                   : DTS XLL
Format/Info                              : Digital Theater Systems
Commercial name                          : DTS-HD Master Audio
Codec ID                                 : A_DTS
Duration                                 : 1 h 41 min
Bit rate mode                            : Variable
Bit rate                                 : 2 259 kb/s
Channel(s)                               : 6 channels
Channel layout                           : C L R Ls Rs LFE
Sampling rate                            : 48.0 kHz
Frame rate                               : 93.750 FPS (512 SPF)
Bit depth                                : 16 bits
Compression mode                         : Lossless
Delay relative to video                  : 2 ms
Stream size                              : 1.60 GiB (13%)
Title                                    : DTS-HD MA 5.1
Language                                 : English
Default                                  : Yes
Forced                                   : No

Audio #2
ID                                       : 3
Format                                   : E-AC-3
Format/Info                              : Enhanced AC-3
Commercial name                          : Dolby Digital Plus
Codec ID                                 : A_EAC3
Duration                                 : 1 h 41 min
Bit rate mode                            : Constant
Bit rate                                 : 640 kb/s
Channel(s)                               : 6 channels
Channel layout                           : L R C LFE Ls Rs
Sampling rate                            : 48.0 kHz
Frame rate                               : 31.250 FPS (1536 SPF)
Compression mode                         : Lossy
Stream size                              : 463 MiB (4%)
Title                                    : DDP 5.1
Language                                 : English
Service kind                             : Complete Main
Default                                  : No
Forced                                   : No

Text
ID                                       : 4
Format                                   : UTF-8
Codec ID                                 : S_TEXT/UTF8
Codec ID/Info                            : UTF-8 Plain Text
Duration                                 : 1 h 34 min
Bit rate                                 : 100 b/s
Count of elements                        : 2024
Stream size                              : 69.6 KiB (0%)
Title                                    : SRT
Language                                 : English
Default                                  : Yes
Forced                                   : No

Menu
00:00:00.000                             : en:Chapter 01
00:05:22.489                             : en:Chapter 02
00:12:32.293                             : en:Chapter 03
00:18:37.158                             : en:Chapter 04
00:25:17.850                             : en:Chapter 05
00:31:52.828                             : en:Chapter 06
00:40:32.972                             : en:Chapter 07
00:47:15.207                             : en:Chapter 08
00:54:29.850                             : en:Chapter 09
01:01:07.289                             : en:Chapter 10
01:06:11.593                             : en:Chapter 11
01:12:09.951                             : en:Chapter 12
01:18:04.054                             : en:Chapter 13
01:23:55.822                             : en:Chapter 14
01:29:39.833                             : en:Chapter 15
01:34:52.604                             : en:Chapter 16




                                                                                                                                                                                                        
                                                                                                                                                                                                                                                                                                                                                                                                                                                                                                                                                                                                                                                                                                                                                                                                                                                        
ad4afede4aa9b13e253f0641a1404d3b.zip (63.24 KB, 下载次数: 10)

回复

使用道具 举报

小黑屋|磁力链接吧 |网站地图

本网站所有资源来自网络,如无意中侵犯了您的权益,请发邮件至 [email protected],立即清除相关链接

GMT+8, 2021-4-16 11:22 , Processed in 0.190319 second(s), 22 queries .

Powered by Discuz! X3.2

© 2001-2013 Comsenz Inc.

快速回复 返回顶部 返回列表