磁力链接吧

 找回密码
 立即注册
搜索

[BD-4K] 你好布拉德/人生剩利组 Brads.Status.2017.2160p.AMZN.WEB-DL.x265.10bi...

[复制链接]
百度云资源 发表于 2021-3-10 10:37:02 | 显示全部楼层 |阅读模式
-->
帖子完整标题:你好布拉德/人生剩利组 Brads.Status.2017.2160p.AMZN.WEB-DL.x265.10bit.HDR10Plus.DTS-HD.MA.5.1-SWTYBLZ 13.72GB


[/url]

◎译  名 你好布拉德/人生剩利组(台)/布拉德的中年危机
◎片  名 Brad's Status
◎年  代 2017
◎产  地 美国
◎类  别 剧情 / 喜剧 / 音乐
◎语  言 英语
◎上映日期 2017-09-09(多伦多电影节) / 2017-09-15(美国)
◎IMDb评分  6.5/10 from 16124 users
◎  
◎豆瓣评分 7.8/10 from 13194 users
◎ 
◎片  长 102分钟
◎导  演 麦克·怀特 Mike White
◎编  剧 麦克·怀特 Mike White
◎主  演 本·斯蒂勒 Ben Stiller
       奥斯汀·艾布拉姆斯 Austin Abrams
       珍娜·费舍 Jenna Fischer
       麦克·辛 Michael Sheen
       杰梅奈·克莱门特 Jemaine Clement
       卢克·威尔逊 Luke Wilson
       莎兹·拉亚 Shazi Raja
       路易莎·李 Luisa Lee
       麦克·怀特 Mike White
       泽维尔·佩雷斯·格罗贝 Xavier Pérez Grobet
       亚当·卡布里奥罗 Adam Capriolo
       费利西亚·舒尔曼 Felicia Shulman
       简·惠勒 Jane Wheeler
       卡尔·格拉戈萨斯 Karl Graboshas
       艾琳·阿戈斯蒂诺 Erin Agostino
       弗兰克·方丹 Frank Fontaine
       道恩·福特 Dawn Ford
       斯皮罗·马兰隹克斯 Spiro Malandrakis
       沙维尔·索特洛 Xavier Sotelo
       吉米·坎摩尔 Jimmy Kimmel
       亚历山大·贝朗格 Alexandre Bélanger
       莱克西·罗斯 Lexie Roth
       娜塔莉·希波蒂 Nathaly Thibault
       阿德里安·M·蒙波因特 Adrian M. Mompoint
       拉里·尤登 Larry Eudene

◎标  签 中年危机 | 人生 | 美国 | 父子 | 剧情 | 家庭 | 2017 | 成长

◎简  介

  布拉德(本·斯蒂勒 Ben Stiller 饰)一直以来都是一名坚定的理想主义者,如今,他和妻子梅兰妮(珍娜·费舍 Jenna Fischer 饰)共同抚养着儿子特洛伊(奥斯汀·艾布拉姆斯 Austin Abrams)饰,与此同时,他还在经营着一家非营利性的组织,该组织专门在有需要的人和资本家之间牵线搭桥,帮助这些人获得资本的支持。
  
  某日,布拉德开始审视自己的这大半辈子,忽然产生了自己一文不值的感觉。他觉得他这么多年来所有的理念,所做出的的全部努力都没有任何的意义。他不能给人带来实质性的帮助,同时也无法给家人带来更优渥的生活条件,而和他同龄的那些大学同学们现在都成为了各领域内的中坚分子。布拉德的整个人生都被自己否定了。

◎获奖情况

  第27届哥谭独立电影奖 ?(2017)
  最佳剧本(提名) 麦克·怀特
Video
ID                                       : 1
Format                                   : HEVC
Format/Info                              : High Efficiency Video Coding
Format profile                           : Main @Main
HDR format                               : SMPTE ST 2094 App 4, Version 1, HDR10+ Profile B compatible
Codec ID                                 : V_MPEGH/ISO/HEVC
Duration                                 : 1 h 41 min
Bit rate                                 : 14.7 Mb/s
Width                                    : 3 840 pixels
Height                                   : 1 920 pixels
Display aspect ratio                     : 2.000
Frame rate mode                          : Constant
Frame rate                               : 23.976 (24000/1001/189150) FPS
Color space                              : YUV
Chroma subsampling                       : 4:2:0
Bit depth                                : 10 bits
Bits/(Pixel*Frame)                       : 0.083
Stream size                              : 10.5 GiB (76%)
Default                                  : Yes
Forced                                   : No
Color range                              : Limited
Color primaries                          : BT.2020
Transfer characteristics                 : PQ
Matrix coefficients                      : BT.2020 non-constant
Mastering display color primaries        : Display P3
Mastering display luminance              : min: 0.0001 cd/m2, max: 1000 cd/m2
Maximum Content Light Level              : 889 cd/m2
Maximum Frame-Average Light Level        : 265 cd/m2

Audio #1
ID                                       : 2
Format                                   : DTS XLL
Format/Info                              : Digital Theater Systems
Commercial name                          : DTS-HD Master Audio
Codec ID                                 : A_DTS
Duration                                 : 1 h 41 min
Bit rate mode                            : Variable
Bit rate                                 : 3 927 kb/s
Channel(s)                               : 6 channels
Channel layout                           : C L R Ls Rs LFE
Sampling rate                            : 48.0 kHz
Frame rate                               : 93.750 FPS (512 SPF)
Bit depth                                : 24 bits
Compression mode                         : Lossless
Delay relative to video                  : 2 ms
Stream size                              : 2.80 GiB (20%)
Title                                    : DTS-HD MA 5.1
Language                                 : English
Default                                  : Yes
Forced                                   : No

Audio #2
ID                                       : 3
Format                                   : E-AC-3
Format/Info                              : Enhanced AC-3
Commercial name                          : Dolby Digital Plus
Codec ID                                 : A_EAC3
Duration                                 : 1 h 41 min
Bit rate mode                            : Constant
Bit rate                                 : 640 kb/s
Channel(s)                               : 6 channels
Channel layout                           : L R C LFE Ls Rs
Sampling rate                            : 48.0 kHz
Frame rate                               : 31.250 FPS (1536 SPF)
Compression mode                         : Lossy
Stream size                              : 467 MiB (3%)
Title                                    : DDP 5.1
Language                                 : English
Service kind                             : Complete Main
Default                                  : No
Forced                                   : No

Text #1
ID                                       : 4
Format                                   : UTF-8
Codec ID                                 : S_TEXT/UTF8
Codec ID/Info                            : UTF-8 Plain Text
Duration                                 : 1 h 40 min
Bit rate                                 : 74 b/s
Count of elements                        : 1796
Stream size                              : 54.5 KiB (0%)
Title                                    : English
Language                                 : English
Default                                  : Yes
Forced                                   : No

Text #2
ID                                       : 5
Format                                   : UTF-8
Codec ID                                 : S_TEXT/UTF8
Codec ID/Info                            : UTF-8 Plain Text
Duration                                 : 1 h 40 min
Bit rate                                 : 79 b/s
Count of elements                        : 1967
Stream size                              : 58.3 KiB (0%)
Title                                    : English [SDH]
Language                                 : English
Default                                  : No
Forced                                   : No

Text #3
ID                                       : 6
Format                                   : UTF-8
Codec ID                                 : S_TEXT/UTF8
Codec ID/Info                            : UTF-8 Plain Text
Duration                                 : 1 h 40 min
Bit rate                                 : 61 b/s
Count of elements                        : 1275
Stream size                              : 45.4 KiB (0%)
Title                                    : French
Language                                 : French
Default                                  : No
Forced                                   : No

Text #4
ID                                       : 7
Format                                   : UTF-8
Codec ID                                 : S_TEXT/UTF8
Codec ID/Info                            : UTF-8 Plain Text
Duration                                 : 1 h 40 min
Bit rate                                 : 70 b/s
Count of elements                        : 1285
Stream size                              : 51.7 KiB (0%)
Title                                    : Italian
Language                                 : Italian
Default                                  : No
Forced                                   : No

Menu
00:00:00.000                             : en:Studio Logos
00:00:41.000                             : en:Brad compares himself to his friends
00:06:45.000                             : en:Brad and Troy begin their trip
00:13:41.000                             : en:Brad reflects on his decisions
00:19:08.000                             : en:Troy thinks he might get into Harvard
00:22:37.000                             : en:Brad reflects on raising Troy
00:25:13.000                             : en:Troy arrives for his Harvard interview
00:30:07.000                             : en:Brad tries to call Craig
00:38:48.000                             : en:Craig connects with Brad
00:48:16.000                             : en:Brad remembers his college idealism
00:55:37.000                             : en:Brad tells Ananya about his problems
01:03:18.000                             : en:Troy has his interview with the Dean
01:10:40.000                             : en:Brad looks for an old professor
01:14:24.000                             : en:Brad meets Craig for dinner
01:26:33.000                             : en:Brad meets Troy at the concert
01:31:00.000                             : en:We're still alive
01:35:28.000                             : en:End Credits




                                                                                                                                                                                                        
                                                                                                                                                                                                                                                                                                                                                                                                                                                                                                                                                                                                                                                                                                                                                                                                                                                        
537adf0a2d3f1e83e70845adfa5ff9c2.zip (69.33 KB, 下载次数: 4)

回复

使用道具 举报

小黑屋|磁力链接吧 |网站地图

本网站所有资源来自网络,如无意中侵犯了您的权益,请发邮件至 [email protected],立即清除相关链接

GMT+8, 2021-4-16 07:35 , Processed in 0.119483 second(s), 22 queries .

Powered by Discuz! X3.2

© 2001-2013 Comsenz Inc.

快速回复 返回顶部 返回列表