磁力链接吧

 找回密码
 立即注册
搜索

[BD-4K] 寂静中的惊奇/奇光下的秘密 Wonderstruck.2017.2160p.AMZN.WEB-DL.x26...

[复制链接]
百度云资源 发表于 2021-3-10 10:37:02 | 显示全部楼层 |阅读模式
-->
帖子完整标题:寂静中的惊奇/奇光下的秘密 Wonderstruck.2017.2160p.AMZN.WEB-DL.x265.10bit.HDR10Plus.DTS-HD.MA.5.1-SWTYBLZ 14.10GB


[/url]

◎译  名 寂静中的惊奇/奇光下的秘密(台)/童幻逆缘(港)
◎片  名 Wonderstruck
◎年  代 2017
◎产  地 美国
◎类  别 剧情
◎语  言 英语
◎上映日期 2017-05-18(戛纳电影节) / 2017-10-20(美国)
◎IMDb评分  6.2/10 from 9547 users
◎  
◎豆瓣评分 6.0/10 from 1820 users
◎ 
◎片  长 116分钟
◎导  演 托德·海因斯 Todd Haynes
◎编  剧 布赖恩·塞尔兹尼克 Brian Selznick
◎主  演 米利森特·西蒙兹 Millicent Simmonds
       奥克斯·费格雷 Oakes Fegley
       朱丽安·摩尔 Julianne Moore
       艾米·哈格里夫斯 Amy Hargreaves
       米歇尔·威廉姆斯 Michelle Williams
       汤姆·诺南 Tom Noonan
       科里·迈克尔·史密斯 Cory Michael Smith
       詹姆斯·乌尔班尼亚克 James Urbaniak
       达米安·杨 Damian Young
       马科·查卡 Marko Caka
       摩根·特纳 Morgan Turner
       海斯·威尔弗德 Hays Wellford
       叶卡特琳娜·萨姆索诺夫 Ekaterina Samsonov
       杰登·迈克尔 Jaden Michael

◎标  签 美国 | 2017 | 剧情 | 托德·海因斯 | ToddHaynes | 戛纳 | 美国电影 | JulianneMoore

◎简  介

  托德·海因斯《寂静中的惊奇》将以半默片形式呈现。影片改编自同名小说,朱丽安·摩尔、米歇尔·威廉姆斯加盟。片中1927年部分的画面将以无声电影的形式呈现,还原一个真实的时代,堪称电影生涯中最有野心的作品。

◎获奖情况

  第70届戛纳电影节 ?(2017)
  主竞赛单元金棕榈奖(提名) 托德·海因斯
  
  第23届美国评论家选择电影奖 ?(2018)
  最佳青少年演员(提名) 米利森特·西蒙兹
  
  第22届金卫星奖 ?(2018)
  电影部门最佳改编剧本(提名) 布赖恩·塞尔兹尼克
  电影部门最佳原创配乐(提名) 卡特·伯韦尔
[quote]Video
ID                                       : 1
Format                                   : HEVC
Format/Info                              : High Efficiency Video Coding
Format profile                           : Main @Main
HDR format                               : SMPTE ST 2094 App 4, Version 1, HDR10+ Profile B compatible
Codec ID                                 : V_MPEGH/ISO/HEVC
Duration                                 : 1 h 55 min
Bit rate                                 : 15.0 Mb/s
Width                                    : 3 840 pixels
Height                                   : 1 600 pixels
Display aspect ratio                     : 2.40:1
Frame rate mode                          : Constant
Frame rate                               : 23.976 (24000/1001/189150) FPS
Color space                              : YUV
Chroma subsampling                       : 4:2:0
Bit depth                                : 10 bits
Bits/(Pixel*Frame)                       : 0.102
Stream size                              : 12.1 GiB (86%)
Default                                  : Yes
Forced                                   : No
Color range                              : Limited
Color primaries                          : BT.2020
Transfer characteristics                 : PQ
Matrix coefficients                      : BT.2020 non-constant
Mastering display color primaries        : Display P3
Mastering display luminance              : min: 0.0001 cd/m2, max: 1000 cd/m2
Maximum Content Light Level              : 886 cd/m2
Maximum Frame-Average Light Level        : 295 cd/m2

Audio #1
ID                                       : 2
Format                                   : DTS XLL
Format/Info                              : Digital Theater Systems
Commercial name                          : DTS-HD Master Audio
Codec ID                                 : A_DTS
Duration                                 : 1 h 55 min
Bit rate mode                            : Variable
Bit rate                                 : 1 879 kb/s
Channel(s)                               : 6 channels
Channel layout                           : C L R Ls Rs LFE
Sampling rate                            : 48.0 kHz
Frame rate                               : 93.750 FPS (512 SPF)
Bit depth                                : 16 bits
Compression mode                         : Lossless
Delay relative to video                  : 2 ms
Stream size                              : 1.52 GiB (11%)
Title                                    : DTS-HD MA 5.1
Language                                 : English
Default                                  : Yes
Forced                                   : No

Audio #2
ID                                       : 3
Format                                   : E-AC-3
Format/Info                              : Enhanced AC-3
Commercial name                          : Dolby Digital Plus
Codec ID                                 : A_EAC3
Duration                                 : 1 h 55 min
Bit rate mode                            : Constant
Bit rate                                 : 640 kb/s
Channel(s)                               : 6 channels
Channel layout                           : L R C LFE Ls Rs
Sampling rate                            : 48.0 kHz
Frame rate                               : 31.250 FPS (1536 SPF)
Compression mode                         : Lossy
Stream size                              : 528 MiB (4%)
Title                                    : English
Language                                 : English
Service kind                             : Complete Main
Default                                  : No
Forced                                   : No

Text #1
ID                                       : 4
Format                                   : UTF-8
Codec ID                                 : S_TEXT/UTF8
Codec ID/Info                            : UTF-8 Plain Text
Duration                                 : 1 h 54 min
Bit rate                                 : 23 b/s
Count of elements                        : 893
Stream size                              : 19.5 KiB (0%)
Title                                    : English [SDH]
Language                                 : English
Default                                  : Yes
Forced                                   : No

Text #2
ID                                       : 5
Format                                   : UTF-8
Codec ID                                 : S_TEXT/UTF8
Codec ID/Info                            : UTF-8 Plain Text
Duration                                 : 1 h 49 min
Bit rate                                 : 18 b/s
Count of elements                        : 565
Stream size                              : 14.8 KiB (0%)
Title                                    : Italian
Language                                 : Italian
Default                                  : No
Forced                                   : No

Text #3
ID                                       : 6
Format                                   : UTF-8
Codec ID                                 : S_TEXT/UTF8
Codec ID/Info                            : UTF-8 Plain Text
Duration                                 : 1 h 54 min
Bit rate                                 : 16 b/s
Count of elements                        : 518
Stream size                              : 14.0 KiB (0%)
Title                                    : Brazilian Portuguese
Language                                 : Portuguese
Default                                  : No
Forced                                   : No

Text #4
ID                                       : 7
Format                                   : UTF-8
Codec ID                                 : S_TEXT/UTF8
Codec ID/Info                            : UTF-8 Plain Text
Duration                                 : 1 h 54 min
Bit rate                                 : 18 b/s
Count of elements                        : 563
Stream size                              : 15.2 KiB (0%)
Title                                    : Japanese
Language                                 : Japanese
Default                                  : No
Forced                                   : No

Text #5
ID                                       : 8
Format                                   : UTF-8
Codec ID                                 : S_TEXT/UTF8
Codec ID/Info                            : UTF-8 Plain Text
Duration                                 : 1 h 54 min
Bit rate                                 : 17 b/s
Count of elements                        : 604
Stream size                              : 15.0 KiB (0%)
Title                                    : Portuguese
Language                                 : Portuguese
Default                                  : No
Forced                                   : No

Text #6
ID                                       : 9
Format                                   : UTF-8
Codec ID                                 : S_TEXT/UTF8
Codec ID/Info                            : UTF-8 Plain Text
Duration                                 : 1 h 54 min
Bit rate                                 : 31 b/s
Count of elements                        : 519
Stream size                              : 26.3 KiB (0%)
Title                                    : Hebrew
Language                                 : Hebrew
Default                                  : No
Forced                                   : No

Text #7
ID                                       : 10
Format                                   : UTF-8
Codec ID                                 : S_TEXT/UTF8
Codec ID/Info                            : UTF-8 Plain Text
Duration                                 : 1 h 54 min
Bit rate                                 : 18 b/s
Count of elements                        : 656
Stream size                              : 15.3 KiB (0%)
Title                                    : German
Language                                 : German
Default                                  : No
Forced                                   : No

Text #8
ID                                       : 11
Format                                   : UTF-8
Codec ID                                 : S_TEXT/UTF8
Codec ID/Info                            : UTF-8 Plain Text
Duration                                 : 1 h 48 min
Bit rate                                 : 28 b/s
Count of elements                        : 640
Stream size                              : 22.3 KiB (0%)
Title                                    : Arabic
Language                                 : Arabic
Default                                  : No
Forced                                   : No

Text #9
ID                                       : 12
Format                                   : UTF-8
Codec ID                                 : S_TEXT/UTF8
Codec ID/Info                            : UTF-8 Plain Text
Duration                                 : 1 h 48 min
Bit rate                                 : 21 b/s
Count of elements                        : 679
Stream size                              : 17.1 KiB (0%)
Title                                    : Indonesian
Language                                 : Indonesian
Default                                  : No
Forced                                   : No

Text #10
ID                                       : 13
Format                                   : UTF-8
Codec ID                                 : S_TEXT/UTF8
Codec ID/Info                            : UTF-8 Plain Text
Duration                                 : 1 h 54 min
Bit rate                                 : 33 b/s
Count of elements                        : 696
Stream size                              : 28.5 KiB (0%)
Title                                    : Russian
Language                                 : Russian
Default                                  : No
Forced                                   : No

Text #11
ID                                       : 14
Format                                   : UTF-8
Codec ID                                 : S_TEXT/UTF8
Codec ID/Info                            : UTF-8 Plain Text
Duration                                 : 1 h 49 min
Bit rate                                 : 16 b/s
Count of elements                        : 566
Stream size                              : 13.2 KiB (0%)
Title                                    : Croatian
Language                                 : Croatian
Default                                  : No
Forced                                   : No

Text #12
ID                                       : 15
Format                                   : UTF-8
Codec ID                                 : S_TEXT/UTF8
Codec ID/Info                            : UTF-8 Plain Text
Duration                                 : 1 h 54 min
Bit rate                                 : 19 b/s
Count of elements                        : 687
Stream size                              : 16.0 KiB (0%)
Title                                    : Malay
Language                                 : Malay
Default                                  : No
Forced                                   : No

Text #13
ID                                       : 16
Format                                   : UTF-8
Codec ID                                 : S_TEXT/UTF8
Codec ID/Info                            : UTF-8 Plain Text
Duration                                 : 1 h 54 min
Bit rate                                 : 16 b/s
Count of elements                        : 556
Stream size                              : 13.6 KiB (0%)
Title                                    : French
Language                                 : French
Default                                  : No
Forced                                   : No

Text #14
ID                                       : 17
Format                                   : UTF-8
Codec ID                                 : S_TEXT/UTF8
Codec ID/Info                            : UTF-8 Plain Text
Duration                                 : 1 h 54 min
Bit rate                                 : 22 b/s
Count of elements                        : 698
Stream size                              : 19.1 KiB (0%)
Title                                    : Korean
Language                                 : Korean
Default                                  : No
Forced                                   : No

Text #15
ID                                       : 18
Format                                   : UTF-8
Codec ID                                 : S_TEXT/UTF8
Codec ID/Info                            : UTF-8 Plain Text
Duration                                 : 1 h 54 min
Bit rate                                 : 13 b/s
Count of elements                        : 432
Stream size                              : 11.3 KiB (0%)
Title                                    : Slovenian
Language                                 : Slovenian
Default                                  : No
Forced                                   : No

Text #16
ID                                       : 19
Format                                   : UTF-8
Codec ID                                 : S_TEXT/UTF8
Codec ID/Info                            : UTF-8 Plain Text
Duration                                 : 1 h 49 min
Bit rate                                 : 20 b/s
Count of elements                        : 630
Stream size                              : 16.0 KiB (0%)
Title                                    : Spanish
Language                                 : Spanish
Default                                  : No
Forced                                   : No

Text #17
ID                                       : 20
Format                                   : UTF-8
Codec ID                                 : S_TEXT/UTF8
Codec ID/Info                            : UTF-8 Plain Text
Duration                                 : 1 h 54 min
Bit rate                                 : 17 b/s
Count of elements                        : 699
Stream size                              : 14.8 KiB (0%)
Title                                    : Chinese (Simplified)
Language                                 : Chinese
Default                                  : No
Forced                                   : No

Text #18
ID                                       : 21
Format                                   : UTF-8
Codec ID                                 : S_TEXT/UTF8
Codec ID/Info                            : UTF-8 Plain Text
Duration                                 : 1 h 48 min
Bit rate                                 : 15 b/s
Count of elements                        : 420
Stream size                              : 12.3 KiB (0%)
Title                                    : Dutch
Language                                 : Dutch
Default                                  : No
Forced                                   : No

Text #19
ID                                       : 22
Format                                   : UTF-8
Codec ID                                 : S_TEXT/UTF8
Codec ID/Info                            : UTF-8 Plain Text
Duration                                 : 1 h 54 min
Bit rate                                 : 17 b/s
Count of elements                        : 700
Stream size                              : 15.0 KiB (0%)
Title                                    : Chinese (Traditional)
Language                                 : Chinese
Default                                  : No
Forced                                   : No

Text #20
ID                                       : 23
Format                                   : UTF-8
Codec ID                                 : S_TEXT/UTF8
Codec ID/Info                            : UTF-8 Plain Text
Duration                                 : 1 h 54 min
Bit rate                                 : 17 b/s
Count of elements                        : 650
Stream size                              : 14.9 KiB (0%)
Title                                    : Polish
Language                                 : Polish
Default                                  : No
Forced                                   : No

Text #21
ID                                       : 24
Format                                   : UTF-8
Codec ID                                 : S_TEXT/UTF8
Codec ID/Info                            : UTF-8 Plain Text
Duration                                 : 1 h 54 min
Bit rate                                 : 18 b/s
Count of elements                        : 706
Stream size                              : 15.9 KiB (0%)
Title                                    : English
Language                                 : English
Default                                  : No
Forced                                   : No

Text #22
ID                                       : 25
Format                                   : UTF-8
Codec ID                                 : S_TEXT/UTF8
Codec ID/Info                            : UTF-8 Plain Text
Duration                                 : 1 h 49 min
Bit rate                                 : 18 b/s
Count of elements                        : 501
Stream size                              : 14.7 KiB (0%)
Title                                    : Swedish
Language                                 : Swedish
Default                                  : No
Forced                                   : No

Text #23
ID                                       : 26
Format                                   : UTF-8
Codec ID                                 : S_TEXT/UTF8
Codec ID/Info                            : UTF-8 Plain Text
Duration                                 : 1 h 48 min
Bit rate                                 : 40 b/s
Count of elements                        : 575
Stream size                              : 31.9 KiB (0%)
Title                                    : Thai
Language                                 : Thai
Default                                  : No
Forced                                   : No

Text #24
ID                                       : 27
Format                                   : UTF-8
Codec ID                                 : S_TEXT/UTF8
Codec ID/Info                            : UTF-8 Plain Text
Duration                                 : 1 h 49 min
Bit rate                                 : 18 b/s
Count of elements                        : 501
Stream size                              : 14.6 KiB (0%)
Title                                    : Danish
Language                                 : Danish
Default                                  : No
Forced                                   : No

Menu
00:00:00.000                             : en:Amazon Originals
00:00:30.000                             : en:Ben has a tough night
00:02:12.000                             : en:Memories never fade
00:05:53.000                             : en:Rose spots her screen star on a magazine
00:07:50.000                             : en:Ben has trouble to sleep
00:09:50.000                             : en:Rose works on her scrapbook
00:11:10.000                             : en:A wound that doesn't heal
00:13:22.000                             : en:Rose goes alone to the movie theater
00:14:26.000                             : en:A drawer full of memories
00:17:19.000                             : en:Rose watches a movie
00:17:51.000                             : en:The bookmark number
00:19:09.000                             : en:A sad end for Rose
00:20:15.000                             : en:Ben wakes up after the accident
00:23:03.000                             : en:Rose gets in trouble at home
00:25:00.000                             : en:Time for a change
00:29:25.000                             : en:Ben starts his lonely journey
00:32:53.000                             : en:Rose arrives in New York
00:35:42.000

回复

使用道具 举报

小黑屋|磁力链接吧 |网站地图

本网站所有资源来自网络,如无意中侵犯了您的权益,请发邮件至 [email protected],立即清除相关链接

GMT+8, 2021-4-16 09:24 , Processed in 0.085382 second(s), 19 queries .

Powered by Discuz! X3.2

© 2001-2013 Comsenz Inc.

快速回复 返回顶部 返回列表