磁力链接吧

 找回密码
 立即注册
搜索

安东尼和克里奥帕特拉/安东尼和埃及艳后 Antony.and.Cleopatra....

[复制链接]
百度云资源 发表于 2021-3-10 10:16:45 | 显示全部楼层 |阅读模式
-->
帖子完整标题:安东尼和克里奥帕特拉/安东尼和埃及艳后 Antony.and.Cleopatra.1972.720p.BluRay.x264-GAZER 7.66GB


[/url]

◎译  名 安东尼和克里奥帕特拉/安东尼和埃及艳后
◎片  名 Antony and Cleopatra
◎年  代 1972
◎产  地 英国,西班牙,瑞士
◎类  别 剧情 / 历史
◎语  言 英语
◎上映日期 1972-03-02
◎IMDb评分  5.8/10 from 816 users
◎  
◎豆瓣评分 /10 from 0 users
◎ 
◎片  长 138 分钟
◎导  演 查尔顿·赫斯顿 Charlton Heston
◎编  剧 查尔顿·赫斯顿 Charlton Heston / 莎士比亚 William Shakespeare
◎主  演 查尔顿·赫斯顿 Charlton Heston
       埃里克·波特 Eric Porter
       理查德·约翰逊 Richard Johnson
       何塞·曼努埃尔·马丁 José Manuel Martín
       Hildegarde Neil
       Monica Peterson
       卡门·塞维利亚 Carmen Sevilla
       埃米利亚诺·雷东多 Emiliano Redondo
       道格拉斯·威尔默 Douglas Wilmer
       约翰·卡索 John Castle
       Manolo Otero
       简·拉波特泰尔 Jane Lapotaire
       John Hallam
       阿尔多·桑布雷利 Aldo Sambrell
       胡安·路易斯·加利亚尔多 Juan Luis Galiardo
       桑乔·格拉西亚 Sancho Gracia
       沃伦·克拉克 Warren Clarke
       弗雷迪·琼斯 Freddie Jones
       费尔南多·雷伊 Fernando Rey
       Peter Arne
       Luis Barboo
       罗杰·德尔珈朵   Roger Delgado
       朱利安·格洛弗 Julian Glover

◎标  签 高跟鞋排行 | 英國 | 70 | 1972 | 1970s | 高跟鞋 | 英国 | 美国

◎简  介

  暂无相关剧情介绍
Video
ID                                       : 1
Format                                   : AVC
Format/Info                              : Advanced Video Codec
Format profile                           :
Format settings                          : CABAC / 11 Ref Frames
Format settings, CABAC                   : Yes
Format settings, Reference frames        : 11 frames
Codec ID                                 : V_MPEG4/ISO/AVC
Duration                                 : 2 h 27 min
Bit rate                                 : 6 879 kb/s
Width                                    : 1 280 pixels
Height                                   : 546 pixels
Display aspect ratio                     : 2.35:1
Frame rate mode                          : Constant
Frame rate                               : 23.976 (24000/1001/189150) FPS
Color space                              : YUV
Chroma subsampling                       : 4:2:0
Bit depth                                : 8 bits
Scan type                                : Progressive
Bits/(Pixel*Frame)                       : 0.411
Stream size                              : 7.09 GiB (93%)
Writing library                          : x264 core 161 r3048 b86ae3c
Encoding settings                        : cabac=1 / ref=11 / deblock=1:-3:-3 / analyse=0x3:0x133 / me=umh / subme=10 / psy=1 / psy_rd=1.20:0.00 / mixed_ref=1 / me_range=24 / chroma_me=1 / trellis=2 / 8x8dct=1 / cqm=0 / deadzone=21,11 / fast_pskip=0 / chroma_qp_offset=-2 / threads=17 / lookahead_threads=2 / sliced_threads=0 / nr=0 / decimate=0 / interlaced=0 / bluray_compat=0 / constrained_intra=0 / bframes=8 / b_pyramid=2 / b_adapt=2 / b_bias=0 / direct=3 / weightb=1 / open_gop=0 / weightp=2 / keyint=250 / keyint_min=23 / scenecut=40 / intra_refresh=0 / rc_lookahead=60 / rc=crf / mbtree=1 / crf=17.0 / qcomp=0.60 / qpmin=0 / qpmax=69 / qpstep=4 / ip_ratio=1.40 / aq=3:0.90
Default                                  : Yes
Forced                                   : No
Color range                              : Limited
Matrix coefficients                      : BT.709

Audio
ID                                       : 2
Format                                   : FLAC
Format/Info                              : Free Lossless Audio Codec
Codec ID                                 : A_FLAC
Duration                                 : 2 h 27 min
Bit rate mode                            : Variable
Bit rate                                 : 549 kb/s
Channel(s)                               : 2 channels
Channel layout                           : L R
Sampling rate                            : 48.0 kHz
Frame rate                               : 11.719 FPS (4096 SPF)
Bit depth                                : 16 bits
Compression mode                         : Lossless
Stream size                              : 579 MiB (7%)
Writing library                          : libFLAC 1.3.2 (UTC 2017-01-01)
Language                                 : English
Default                                  : Yes
Forced                                   : No

Menu
00:00:00.000                             : en:Chapter 01
00:13:48.786                             : en:Chapter 02
00:26:44.686                             : en:Chapter 03
00:32:44.796                             : en:Chapter 04
00:44:33.254                             : en:Chapter 05
00:58:23.208                             : en:Chapter 06
01:14:07.693                             : en:Chapter 07
01:33:44.619                             : en:Chapter 08
01:49:37.571                             : en:Chapter 09
02:02:30.843                             : en:Chapter 10
02:11:08.152                             : en:Chapter 11
02:26:47.465                             : en:Chapter 12
[/url]



                                                                                                                                                                                                        
                                                                                                                                                                                                                                                                                                                                                                                                                                                                                                                                                                                                                                                                                                                                                                                                                                                        
2e8a96c6a4c497921507bf0bd882e26b.zip (39.02 KB, 下载次数: 14)

回复

使用道具 举报

小黑屋|磁力链接吧 |网站地图

本网站所有资源来自网络,如无意中侵犯了您的权益,请发邮件至 [email protected],立即清除相关链接

GMT+8, 2021-4-19 19:38 , Processed in 0.101722 second(s), 22 queries .

Powered by Discuz! X3.2

© 2001-2013 Comsenz Inc.

快速回复 返回顶部 返回列表