磁力链接吧

 找回密码
 立即注册
搜索

警匪争夺战/紧要关头 Tight.Spot.1955.720p.BluRay.x264-ORBS 4.23GB

[复制链接]
百度云资源 发表于 2021-3-9 13:09:33 | 显示全部楼层 |阅读模式
-->
帖子完整标题:警匪争夺战/紧要关头 Tight.Spot.1955.720p.BluRay.x264-ORBS 4.23GB


[/url]

◎译  名 警匪争夺战/紧要关头
◎片  名 Tight Spot
◎年  代 1955
◎产  地 美国
◎类  别 剧情 / 惊悚 / 黑色电影
◎语  言 英语
◎上映日期 1955-03-19
◎IMDb评分  6.6/10 from 1472 users
◎  
◎豆瓣评分 6.0/10 from 75 users
◎ 
◎片  长 97 分钟
◎导  演 菲尔·卡尔森 Phil Karlson / 威廉·鲍尔斯 William Bowers
◎编  剧 威廉·鲍尔斯 William Bowers / 伦纳德·坎特 Leonard Kantor
◎主  演 爱德华·罗宾逊 Edward G. Robinson
       金杰·罗杰斯 Ginger Rogers
       布莱恩·凯斯 Brian Keith
       Alfred Linder
       Doye O'Dell
       罗伯特·尼克尔斯 Robert Nichols
       Allen Nourse
       Ken Mayer
       Robert Shield
       Gloria Ann Simpson
       约翰·伦巴 John Zaremba
       Will J. White
       海伦·华莱士 Helen Wallace
       Edward McNally
       伊娃·麦克维 Eve McVeagh
       凯丝琳·格兰特 Kathryn Grant
       露西·玛洛 Lucy Marlow
       Bob Hopkins
       艾伦雷诺兹 Alan Reynolds
       布赖恩·基思 Brian Keith
       Tom De Graffenreid
       弗兰克·格斯特 Frank Gerstle
       约瑟夫汉密尔顿 Joseph Hamilton
       Tom Greenway
       皮特·里德斯 Peter Leeds
       约翰·拉尔克 John Larch
       罗恩·格林 Lorne Greene

◎标  签 美国 | 1955 | 黑色电影 | 犯罪 | 爱德华·罗宾逊 | 黑色 | GingerRogers | 1950s

◎简  介

  一个家庭背景不好的街头硬汉和愤世嫉俗的女人,被从监狱带到一家旅馆,在那里检察官试图说服她对一个暴徒作证。雪莉很不情愿,因为最后一个证人是在他出庭作证之前被谋杀的,她为什么要伸出脖子来呢?在旅馆里,她曾多次尝试过自己的生活,结果她爱上了守卫她的警察文斯。
Video
ID                                       : 1
Format                                   : AVC
Format/Info                              : Advanced Video Codec
Format profile                           :
Format settings                          : CABAC / 9 Ref Frames
Format settings, CABAC                   : Yes
Format settings, Reference frames        : 9 frames
Codec ID                                 : V_MPEG4/ISO/AVC
Duration                                 : 1 h 36 min
Bit rate                                 : 5 623 kb/s
Width                                    : 1 280 pixels
Height                                   : 694 pixels
Display aspect ratio                     : 1.85:1
Frame rate mode                          : Constant
Frame rate                               : 23.976 (24000/1001/189150) FPS
Color space                              : YUV
Chroma subsampling                       : 4:2:0
Bit depth                                : 8 bits
Scan type                                : Progressive
Bits/(Pixel*Frame)                       : 0.264
Stream size                              : 3.78 GiB (89%)
Writing library                          : x264 core 161 r3048 b86ae3c
Encoding settings                        : cabac=1 / ref=9 / deblock=1:-3:-3 / analyse=0x3:0x133 / me=umh / subme=10 / psy=1 / psy_rd=1.50:0.15 / mixed_ref=1 / me_range=24 / chroma_me=1 / trellis=2 / 8x8dct=1 / cqm=0 / deadzone=21,11 / fast_pskip=0 / chroma_qp_offset=-3 / threads=22 / lookahead_threads=3 / sliced_threads=0 / nr=0 / decimate=0 / interlaced=0 / bluray_compat=0 / constrained_intra=0 / bframes=8 / b_pyramid=2 / b_adapt=2 / b_bias=0 / direct=3 / weightb=1 / open_gop=0 / weightp=2 / keyint=250 / keyint_min=23 / scenecut=40 / intra_refresh=0 / rc_lookahead=60 / rc=crf / mbtree=1 / crf=20.5 / qcomp=0.60 / qpmin=0 / qpmax=69 / qpstep=4 / ip_ratio=1.40 / aq=3:0.50
Default                                  : Yes
Forced                                   : No
Color range                              : Limited
Matrix coefficients                      : BT.709

Audio #1
ID                                       : 2
Format                                   : FLAC
Format/Info                              : Free Lossless Audio Codec
Codec ID                                 : A_FLAC
Duration                                 : 1 h 36 min
Bit rate mode                            : Variable
Bit rate                                 : 531 kb/s
Channel(s)                               : 1 channel
Channel layout                           : C
Sampling rate                            : 48.0 kHz
Frame rate                               : 11.719 FPS (4096 SPF)
Bit depth                                : 24 bits
Compression mode                         : Lossless
Stream size                              : 365 MiB (8%)
Writing library                          : libFLAC 1.3.2 (UTC 2017-01-01)
Language                                 : English
Default                                  : Yes
Forced                                   : No

Audio #2
ID                                       : 3
Format                                   : AAC LC
Format/Info                              : Advanced Audio Codec Low Complexity
Codec ID                                 : A_AAC-2
Duration                                 : 1 h 36 min
Bit rate                                 : 116 kb/s
Channel(s)                               : 2 channels
Channel layout                           : L R
Sampling rate                            : 48.0 kHz
Frame rate                               : 46.875 FPS (1024 SPF)
Compression mode                         : Lossy
Delay relative to video                  : 20 ms
Stream size                              : 79.8 MiB (2%)
Title                                    : Commentary
Language                                 : English
Default                                  : No
Forced                                   : No

Text
ID                                       : 4
Format                                   : PGS
Muxing mode                              : zlib
Codec ID                                 : S_HDMV/PGS
Codec ID/Info                            : Picture based subtitle format used on BDs/HD-DVDs
Duration                                 : 1 h 35 min
Bit rate                                 : 60.6 kb/s
Count of elements                        : 3272
Stream size                              : 41.4 MiB (1%)
Title                                    : SDH
Language                                 : English
Default                                  : No
Forced                                   : No

Menu
00:00:00.000                             : en:Chapter 01
00:07:47.717                             : en:Chapter 02
00:17:15.201                             : en:Chapter 03
00:27:58.468                             : en:Chapter 04
00:40:22.754                             : en:Chapter 05
00:48:28.906                             : en:Chapter 06
00:56:11.368                             : en:Chapter 07
01:07:47.188                             : en:Chapter 08
01:15:12.174                             : en:Chapter 09
01:25:02.973                             : en:Chapter 10
[/url]



                                                                                                                                                                                                        
                                                                                                                                                                                                                                                                                                                                                                                                                                                                                                                                                                                                                                                                                                                                                                                                                                                        
93b96a164e36866c6003f79bc1d22208.zip (42.97 KB, 下载次数: 7)

回复

使用道具 举报

小黑屋|磁力链接吧 |网站地图

本网站所有资源来自网络,如无意中侵犯了您的权益,请发邮件至 [email protected],立即清除相关链接

GMT+8, 2021-4-16 06:42 , Processed in 0.190538 second(s), 22 queries .

Powered by Discuz! X3.2

© 2001-2013 Comsenz Inc.

快速回复 返回顶部 返回列表