磁力链接吧

 找回密码
 立即注册
搜索

租来的朋友/租个朋友 Rent.A.Pal.2020.1080p.BluRay.x264.DTS-HD.MA.5.1-...

[复制链接]
百度云资源 发表于 2021-3-8 20:10:36 | 显示全部楼层 |阅读模式
-->
帖子完整标题:租来的朋友/租个朋友 Rent.A.Pal.2020.1080p.BluRay.x264.DTS-HD.MA.5.1-MT 17.08GB


[/url]

◎译  名 租来的朋友/租个朋友
◎片  名 Rent-A-Pal
◎年  代 2020
◎产  地 美国
◎类  别 惊悚
◎语  言 英语
◎上映日期 2020-09-11(美国)
◎IMDb评分  6.3/10 from 1871 users
◎  
◎豆瓣评分 6.5/10 from 108 users
◎ 
◎片  长 108分钟
◎导  演 乔恩·斯蒂文森  Jon Stevenson
◎编  剧 乔恩·斯蒂文森  Jon Stevenson
◎主  演 威尔·惠顿 Wil Wheaton
       布莱恩·兰迪斯·福尔金斯 Brian Landis Folkins
       艾米·拉特利奇 Amy Rutledge

◎标  签 惊悚 | 美国 | 2020 | 美国电影 | 血腥 | 美式恐怖 | 恐怖 | (2020)

◎简  介

  Set in 1990, a lonely bachelor named David (Brian Landis Folkins) searches for an escape from the day-to-day drudgery of caring for his aging mother (Kathleen Brady). While seeking a partner through a video dating service, he discovers a strange VHS tape called Rent-A-Pal. Hosted by the charming and charismatic Andy (Wil Wheaton), the tape offers him much-needed company, compassion, and friendship. But, Andy's friendship comes at a cost, and David desperately struggles to afford the price of admission.
Video
ID                                       : 1
Format                                   : AVC
Format/Info                              : Advanced Video Codec
Format profile                           :
Format settings                          : CABAC / 5 Ref Frames
Format settings, CABAC                   : Yes
Format settings, Reference frames        : 5 frames
Codec ID                                 : V_MPEG4/ISO/AVC
Duration                                 : 1 h 48 min
Bit rate                                 : 19.3 Mb/s
Width                                    : 1 920 pixels
Height                                   : 800 pixels
Display aspect ratio                     : 2.40:1
Frame rate mode                          : Constant
Frame rate                               : 23.976 (24000/1001/189150) FPS
Color space                              : YUV
Chroma subsampling                       : 4:2:0
Bit depth                                : 8 bits
Scan type                                : Progressive
Bits/(Pixel*Frame)                       : 0.525
Stream size                              : 14.6 GiB (86%)
Writing library                          : x264 core 157 r2938 2b00a84  Mod
Encoding settings                        : cabac=1 / ref=5 / deblock=1:-3:-3 / analyse=0x3:0x133 / me=umh / subme=10 / psy=1 / psy_rd=1.05:0.00 / mixed_ref=1 / me_range=32 / chroma_me=1 / trellis=2 / 8x8dct=1 / cqm=0 / deadzone=21,11 / fast_pskip=0 / chroma_qp_offset=-2 / threads=12 / lookahead_threads=2 / sliced_threads=0 / nr=0 / decimate=0 / interlaced=0 / bluray_compat=0 / constrained_intra=0 / bframes=8 / b_pyramid=2 / b_adapt=2 / b_bias=0 / direct=3 / weightb=1 / open_gop=0 / weightp=2 / keyint=250 / keyint_min=24 / scenecut=40 / intra_refresh=0 / rc_lookahead=250 / rc=crf / mbtree=0 / crf=16.8 / qcomp=0.60 / qpmin=0 / qpmax=69 / qpstep=4 / vbv_maxrate=62500 / vbv_bufsize=78125 / crf_max=0.0 / nal_hrd=none / filler=0 / ip_ratio=1.30 / pb_ratio=1.20 / aq=3:0.80
Language                                 : English
Default                                  : Yes
Forced                                   : No
Color range                              : Limited
Color primaries                          : BT.709
Matrix coefficients                      : BT.709

Audio
ID                                       : 2
Format                                   : DTS XLL
Format/Info                              : Digital Theater Systems
Commercial name                          : DTS-HD Master Audio
Codec ID                                 : A_DTS
Duration                                 : 1 h 48 min
Bit rate mode                            : Variable
Bit rate                                 : 3 241 kb/s
Channel(s)                               : 6 channels
Channel layout                           : C L R Ls Rs LFE
Sampling rate                            : 48.0 kHz
Frame rate                               : 93.750 FPS (512 SPF)
Bit depth                                : 24 bits
Compression mode                         : Lossless
Stream size                              : 2.45 GiB (14%)
Language                                 : English
Default                                  : Yes
Forced                                   : No

Text #1
ID                                       : 3
Format                                   : UTF-8
Codec ID                                 : S_TEXT/UTF8
Codec ID/Info                            : UTF-8 Plain Text
Duration                                 : 1 h 45 min
Bit rate                                 : 51 b/s
Count of elements                        : 1605
Stream size                              : 40.1 KiB (0%)
Title                                    : SRT
Language                                 : English
Default                                  : Yes
Forced                                   : No

Text #2
ID                                       : 4
Format                                   : PGS
Muxing mode                              : zlib
Codec ID                                 : S_HDMV/PGS
Codec ID/Info                            : Picture based subtitle format used on BDs/HD-DVDs
Duration                                 : 1 h 48 min
Bit rate                                 : 34.8 kb/s
Count of elements                        : 2598
Stream size                              : 26.9 MiB (0%)
Language                                 : English
Default                                  : No
Forced                                   : No

Menu
00:00:00.000                             : en:Chapter 01
00:07:05.508                             : en:Chapter 02
00:15:24.715                             : en:Chapter 03
00:26:32.508                             : en:Chapter 04
00:33:16.745                             : en:Chapter 05
00:53:47.182                             : en:Chapter 06
01:04:10.764                             : en:Chapter 07
01:09:44.764                             : en:Chapter 08
01:18:52.561                             : en:Chapter 09
01:24:27.145                             : en:Chapter 10
01:30:06.693                             : en:Chapter 11
01:36:14.185                             : en:Chapter 12
[/url][/url][/url]



                                                                                                                                                                                                        
                                                                                                                                                                                                                                                                                                                                                                                                                                                                                                                                                                                                                                                                                                                                                                                                                                                        
2c06bbcb4d2d77a1bb26a647c02b20eb.zip (86.06 KB, 下载次数: 10)

回复

使用道具 举报

小黑屋|磁力链接吧 |网站地图

本网站所有资源来自网络,如无意中侵犯了您的权益,请发邮件至 [email protected],立即清除相关链接

GMT+8, 2021-4-16 06:21 , Processed in 0.108886 second(s), 22 queries .

Powered by Discuz! X3.2

© 2001-2013 Comsenz Inc.

快速回复 返回顶部 返回列表