磁力链接吧

 找回密码
 立即注册
搜索

鸣鸟/末世战疫:鸣鸟档案 Songbird.2020.1080p.BluRay.x264.DTS-HD.MA.5....

[复制链接]
百度云资源 发表于 2021-3-8 20:10:36 | 显示全部楼层 |阅读模式
-->
帖子完整标题:鸣鸟/末世战疫:鸣鸟档案 Songbird.2020.1080p.BluRay.x264.DTS-HD.MA.5.1-MT 13.71GB


[/url]

◎译  名 鸣鸟/末世战疫:鸣鸟档案(台)/末世战疫(港)
◎片  名 Songbird
◎年  代 2020
◎产  地 美国
◎类  别 剧情 / 科幻 / 惊悚
◎语  言 英语
◎上映日期 2020-12-11(美国)
◎IMDb评分  4.6/10 from 4921 users
◎  
◎豆瓣评分 4.2/10 from 390 users
◎ 
◎片  长 90分钟
◎导  演 亚当·梅森 Adam Mason
◎编  剧 亚当·梅森 Adam Mason / 西蒙·博伊斯 Simon Boyes
◎主  演 K·J·阿帕 K.J. Apa
       索菲亚·卡尔森 Sofia Carson
       克雷格·罗宾森 Craig Robinson
       布莱德利·惠特福德 Bradley Whitford
       彼得·斯特曼 Peter Stormare
       艾尔皮迪娅·卡里洛 Elpidia Carrillo
       亚历珊德拉·达达里奥 Alexandra Daddario
       莉亚·麦克休 Lia McHugh
       保罗·沃尔特·豪泽 Paul Walter Hauser
       黛米·摩尔 Demi Moore
       保罗·斯隆 Paul Sloan
       安德鲁·霍华德 Andrew Howard
       米歇尔·沃特 Michole White
       达瑞·因戈尔夫松 Darri Ingolfsson
       伊恩·邓肯 Ian Duncan
       苏珊·本尼特 Susan Bennett
       路易斯·格里菲斯 Louise Griffiths
       马特·诺兰 Matt Nolan
       Jason Gray
       伊桑·乔什·李 Ethan Josh Lee
       杰米·麦克布莱德 Jamie McBride
       蒂姆·米库勒基 Tim Mikulecky
       Ben Scott
       珍娜·奥尔特加 Jenna Ortega

◎标  签 美国 | 疫情 | 惊悚 | 剧情 | 美国电影 | 亚历珊德拉·达达里奥 | 2021 | 迈克尔贝

◎简  介

  公元2024年,一种名为COVID-23的病毒肆虐全球,突变后的病毒致死率超过50%,全球迈入大封锁第四年。美国政府为了控制疫情,强制将所有染疫的美国人送往名叫「Q区」的隔离营,以非人道的手段进行管理。在这绝望的世界,对病毒免疫的快递员尼可(K·J·阿帕 饰)与女孩莎拉(索菲亚·卡尔森 饰)坠入了爱河,两人却因为居家隔离的缘故无法相见。但当莎拉意外接触确诊者即将被强制送往隔离营,尼可决定不惜一切代价,穿梭在杳无人烟的洛杉矶街头只为了找出任何可以拯救莎拉的方法…
Video
ID                                       : 1
Format                                   : AVC
Format/Info                              : Advanced Video Codec
Format profile                           :
Format settings                          : CABAC / 5 Ref Frames
Format settings, CABAC                   : Yes
Format settings, Reference frames        : 5 frames
Codec ID                                 : V_MPEG4/ISO/AVC
Duration                                 : 1 h 25 min
Bit rate                                 : 19.4 Mb/s
Width                                    : 1 920 pixels
Height                                   : 804 pixels
Display aspect ratio                     : 2.40:1
Frame rate mode                          : Constant
Frame rate                               : 23.976 (24000/1001/189150) FPS
Color space                              : YUV
Chroma subsampling                       : 4:2:0
Bit depth                                : 8 bits
Scan type                                : Progressive
Bits/(Pixel*Frame)                       : 0.525
Stream size                              : 11.6 GiB (85%)
Writing library                          : x264 core 157 r2938 2b00a84  Mod
Encoding settings                        : cabac=1 / ref=5 / deblock=1:-3:-3 / analyse=0x3:0x133 / me=umh / subme=10 / psy=1 / psy_rd=1.05:0.00 / mixed_ref=1 / me_range=32 / chroma_me=1 / trellis=2 / 8x8dct=1 / cqm=0 / deadzone=21,11 / fast_pskip=0 / chroma_qp_offset=-2 / threads=12 / lookahead_threads=2 / sliced_threads=0 / nr=0 / decimate=0 / interlaced=0 / bluray_compat=0 / constrained_intra=0 / bframes=8 / b_pyramid=2 / b_adapt=2 / b_bias=0 / direct=3 / weightb=1 / open_gop=0 / weightp=2 / keyint=250 / keyint_min=24 / scenecut=40 / intra_refresh=0 / rc_lookahead=250 / rc=crf / mbtree=0 / crf=16.8 / qcomp=0.60 / qpmin=0 / qpmax=69 / qpstep=4 / vbv_maxrate=62500 / vbv_bufsize=78125 / crf_max=0.0 / nal_hrd=none / filler=0 / ip_ratio=1.30 / pb_ratio=1.20 / aq=3:0.80
Language                                 : English
Default                                  : Yes
Forced                                   : No
Color range                              : Limited
Color primaries                          : BT.709
Matrix coefficients                      : BT.709

Audio
ID                                       : 2
Format                                   : DTS XLL
Format/Info                              : Digital Theater Systems
Commercial name                          : DTS-HD Master Audio
Codec ID                                 : A_DTS
Duration                                 : 1 h 25 min
Bit rate mode                            : Variable
Bit rate                                 : 3 517 kb/s
Channel(s)                               : 6 channels
Channel layout                           : C L R Ls Rs LFE
Sampling rate                            : 48.0 kHz
Frame rate                               : 93.750 FPS (512 SPF)
Bit depth                                : 24 bits
Compression mode                         : Lossless
Stream size                              : 2.10 GiB (15%)
Language                                 : English
Default                                  : Yes
Forced                                   : No

Text #1
ID                                       : 3
Format                                   : UTF-8
Codec ID                                 : S_TEXT/UTF8
Codec ID/Info                            : UTF-8 Plain Text
Duration                                 : 1 h 24 min
Bit rate                                 : 58 b/s
Count of elements                        : 1128
Stream size                              : 36.2 KiB (0%)
Title                                    : SRT
Language                                 : English
Default                                  : Yes
Forced                                   : No

Text #2
ID                                       : 4
Format                                   : PGS
Muxing mode                              : zlib
Codec ID                                 : S_HDMV/PGS
Codec ID/Info                            : Picture based subtitle format used on BDs/HD-DVDs
Duration                                 : 1 h 24 min
Bit rate                                 : 45.7 kb/s
Count of elements                        : 2601
Stream size                              : 27.6 MiB (0%)
Language                                 : English
Default                                  : No
Forced                                   : No

Menu
00:00:00.000                             : en:Chapter 01
00:03:43.098                             : en:Chapter 02
00:08:06.778                             : en:Chapter 03
00:11:07.584                             : en:Chapter 04
00:14:47.261                             : en:Chapter 05
00:19:40.054                             : en:Chapter 06
00:23:52.431                             : en:Chapter 07
00:29:42.531                             : en:Chapter 08
00:32:54.890                             : en:Chapter 09
00:36:23.765                             : en:Chapter 10
00:39:07.303                             : en:Chapter 11
00:45:00.031                             : en:Chapter 12
00:51:13.445                             : en:Chapter 13
00:55:03.967                             : en:Chapter 14
00:57:48.674                             : en:Chapter 15
01:03:43.778                             : en:Chapter 16
01:09:24.160                             : en:Chapter 17
01:15:51.338                             : en:Chapter 18
01:19:21.840                             : en:Chapter 19
01:21:55.327                             : en:Chapter 20
[/url][/url][/url]



                                                                                                                                                                                                        
                                                                                                                                                                                                                                                                                                                                                                                                                                                                                                                                                                                                                                                                                                                                                                                                                                                        
764aae016863d3ca4bc1fbc170eb7817.zip (69.2 KB, 下载次数: 3)

回复

使用道具 举报

小黑屋|磁力链接吧 |网站地图

本网站所有资源来自网络,如无意中侵犯了您的权益,请发邮件至 [email protected],立即清除相关链接

GMT+8, 2021-4-19 19:22 , Processed in 0.114363 second(s), 22 queries .

Powered by Discuz! X3.2

© 2001-2013 Comsenz Inc.

快速回复 返回顶部 返回列表