磁力链接吧

 找回密码
 立即注册
搜索

我的一生/今生今世 All.My.Life.2020.1080p.BluRay.x264-BLOW 9.46GB

[复制链接]
百度云资源 发表于 2021-3-8 20:10:36 | 显示全部楼层 |阅读模式
-->
帖子完整标题:我的一生/今生今世 All.My.Life.2020.1080p.BluRay.x264-BLOW 9.46GB


[/url]

◎译  名 我的一生/今生今世
◎片  名 All My Life
◎年  代 2020
◎产  地 美国
◎类  别 剧情 / 爱情
◎语  言 英语
◎上映日期 2020-10-23(英国) / 2020-12-04(美国)
◎IMDb评分  6.2/10 from 1266 users
◎  
◎豆瓣评分 6.3/10 from 271 users
◎ 
◎片  长 93分钟
◎导  演 马克·迈尔斯 Marc Meyers
◎编  剧 托德·罗森博格 Todd Rosenberg
◎主  演 杰西卡·罗德 Jessica Rothe
       岑勇康 Harry Shum Jr.
       玛丽埃尔·斯科特 Marielle Scott
       爱沃·卡拉丹 Ever Carradine
       基拉·塞特尔 Keala Settle
       杰·费罗尔 Jay Pharoah
       乔什·布雷纳 Josh Brener
       凯尔·艾伦 Kyle Allen
       乔恩·鲁德尼茨基 Jon Rudnitsky
       克莉希·菲茨 Chrissie Fit
       安贾利·比玛尼 Anjali Bhimani
       马里奥·坎通 Mario Cantone
       肯尼思·肯特·布赖恩 Kenneth Kynt Bryan
       迈克尔·马西尼 Michael Masini
       约瑟夫·波利昆 Joseph Poliquin
       托尼亚·马尔多纳多 Tonya Maldonado
       杰奎琳·哈里斯·马瑟恩 Jacqueline Harris Matherne
       维多利亚·佩吉·沃特金斯 Victoria Paige Watkins

◎标  签 爱情 | 美国 | 2020 | 剧情 | 改编 | 电影 | Movie | US

◎简  介

  本片根据真实故事改编,剧本一度登上好莱坞剧本黑名单,马克·迈尔斯([人力资本])执导。影片讲述一对恋人索罗门和简在筹备婚礼期间,索罗门查出罹患肝癌,两人为完成心愿,决定将婚礼提前,在善心捐助下,他们如愿完成婚礼,四个月后,索罗门离世。
Video
ID                                       : 1
Format                                   : AVC
Format/Info                              : Advanced Video Codec
Format profile                           :
Format settings                          : CABAC / 5 Ref Frames
Format settings, CABAC                   : Yes
Format settings, Reference frames        : 5 frames
Codec ID                                 : V_MPEG4/ISO/AVC
Duration                                 : 1 h 31 min
Bit rate                                 : 11.2 Mb/s
Width                                    : 1 920 pixels
Height                                   : 804 pixels
Display aspect ratio                     : 2.40:1
Frame rate mode                          : Constant
Frame rate                               : 23.976 (24000/1001/189150) FPS
Color space                              : YUV
Chroma subsampling                       : 4:2:0
Bit depth                                : 8 bits
Scan type                                : Progressive
Bits/(Pixel*Frame)                       : 0.304
Stream size                              : 7.18 GiB (76%)
Writing library                          : x264 core 161 r3048 b86ae3c
Encoding settings                        : cabac=1 / ref=5 / deblock=1:-3:-3 / analyse=0x3:0x133 / me=umh / subme=9 / psy=1 / psy_rd=1.00:0.00 / mixed_ref=1 / me_range=16 / chroma_me=1 / trellis=2 / 8x8dct=1 / cqm=0 / deadzone=21,11 / fast_pskip=0 / chroma_qp_offset=-2 / threads=24 / lookahead_threads=2 / sliced_threads=0 / nr=0 / decimate=0 / interlaced=0 / bluray_compat=0 / constrained_intra=0 / bframes=3 / b_pyramid=2 / b_adapt=2 / b_bias=0 / direct=3 / weightb=1 / open_gop=0 / weightp=2 / keyint=250 / keyint_min=23 / scenecut=40 / intra_refresh=0 / rc=crf / mbtree=0 / crf=17.0 / qcomp=0.60 / qpmin=0 / qpmax=69 / qpstep=4 / ip_ratio=1.40 / pb_ratio=1.30 / aq=3:0.70
Language                                 : English
Default                                  : Yes
Forced                                   : No
Color range                              : Limited
Matrix coefficients                      : BT.709

Audio
ID                                       : 2
Format                                   : DTS XLL
Format/Info                              : Digital Theater Systems
Commercial name                          : DTS-HD Master Audio
Codec ID                                 : A_DTS
Duration                                 : 1 h 31 min
Bit rate mode                            : Variable
Bit rate                                 : 3 500 kb/s
Channel(s)                               : 6 channels
Channel layout                           : C L R Ls Rs LFE
Sampling rate                            : 48.0 kHz
Frame rate                               : 93.750 FPS (512 SPF)
Bit depth                                : 24 bits
Compression mode                         : Lossless
Stream size                              : 2.24 GiB (24%)
Language                                 : English
Default                                  : Yes
Forced                                   : No

Text #1
ID                                       : 3
Format                                   : UTF-8
Codec ID                                 : S_TEXT/UTF8
Codec ID/Info                            : UTF-8 Plain Text
Duration                                 : 1 h 24 min
Bit rate                                 : 61 b/s
Count of elements                        : 1194
Stream size                              : 38.1 KiB (0%)
Title                                    : English (SRT)
Language                                 : English
Default                                  : No
Forced                                   : No

Text #2
ID                                       : 4
Format                                   : UTF-8
Codec ID                                 : S_TEXT/UTF8
Codec ID/Info                            : UTF-8 Plain Text
Duration                                 : 1 h 28 min
Bit rate                                 : 70 b/s
Count of elements                        : 1381
Stream size                              : 46.2 KiB (0%)
Title                                    : English (SDH SRT)
Language                                 : English
Default                                  : No
Forced                                   : No

Text #3
ID                                       : 5
Format                                   : PGS
Muxing mode                              : zlib
Codec ID                                 : S_HDMV/PGS
Codec ID/Info                            : Picture based subtitle format used on BDs/HD-DVDs
Duration                                 : 1 h 28 min
Bit rate                                 : 46.7 kb/s
Count of elements                        : 2762
Stream size                              : 29.7 MiB (0%)
Title                                    : English (SDH)
Language                                 : English
Default                                  : No
Forced                                   : No

Text #4
ID                                       : 6
Format                                   : PGS
Muxing mode                              : zlib
Codec ID                                 : S_HDMV/PGS
Codec ID/Info                            : Picture based subtitle format used on BDs/HD-DVDs
Duration                                 : 1 h 30 min
Bit rate                                 : 36.0 kb/s
Count of elements                        : 2468
Stream size                              : 23.4 MiB (0%)
Title                                    : French
Language                                 : French
Default                                  : No
Forced                                   : No

Text #5
ID                                       : 7
Format                                   : PGS
Muxing mode                              : zlib
Codec ID                                 : S_HDMV/PGS
Codec ID/Info                            : Picture based subtitle format used on BDs/HD-DVDs
Duration                                 : 1 h 30 min
Bit rate                                 : 35.7 kb/s
Count of elements                        : 2458
Stream size                              : 23.1 MiB (0%)
Title                                    : Spanish
Language                                 : Spanish
Default                                  : No
Forced                                   : No

Menu
00:00:00.000                             : en:Chapter 01
00:02:17.721                             : en:Chapter 02
00:06:39.524                             : en:Chapter 03
00:12:03.514                             : en:Chapter 04
00:14:09.223                             : en:Chapter 05
00:18:43.331                             : en:Chapter 06
00:23:35.956                             : en:Chapter 07
00:28:27.915                             : en:Chapter 08
00:31:28.720                             : en:Chapter 09
00:35:06.354                             : en:Chapter 10
00:38:12.790                             : en:Chapter 11
00:42:26.335                             : en:Chapter 12
00:47:32.266                             : en:Chapter 13
00:53:48.434                             : en:Chapter 14
01:00:39.928                             : en:Chapter 15
01:02:41.925                             : en:Chapter 16
01:07:08.942                             : en:Chapter 17
01:11:28.784                             : en:Chapter 18
01:19:03.072                             : en:Chapter 19
01:24:55.132                             : en:Chapter 20
[/url]



                                                                                                                                                                                                        
                                                                                                                                                                                                                                                                                                                                                                                                                                                                                                                                                                                                                                                                                                                                                                                                                                                        
33c66c52f038c389fa8571b51edaf53a.zip (48.01 KB, 下载次数: 5)

回复

使用道具 举报

小黑屋|磁力链接吧 |网站地图

本网站所有资源来自网络,如无意中侵犯了您的权益,请发邮件至 [email protected],立即清除相关链接

GMT+8, 2021-4-16 11:14 , Processed in 0.192426 second(s), 22 queries .

Powered by Discuz! X3.2

© 2001-2013 Comsenz Inc.

快速回复 返回顶部 返回列表