磁力链接吧

 找回密码
 立即注册
搜索

坏心肠 To.Your.Last.Death.2019.1080p.BluRay.x264-VETO 4.63GB

[复制链接]
百度云资源 发表于 2021-3-8 20:10:36 | 显示全部楼层 |阅读模式
-->
帖子完整标题:坏心肠 To.Your.Last.Death.2019.1080p.BluRay.x264-VETO 4.63GB


[/url]

◎译  名 坏心肠/Malevolent/The Malevolent
◎片  名 To Your Last Death
◎年  代 2019
◎产  地 美国
◎类  别 动画 / 恐怖
◎语  言 英语
◎上映日期 2019-08-23(FrightFest电影节)
◎IMDb评分  7/10 from 2485 users
◎  
◎豆瓣评分 5.8/10 from 493 users
◎ 
◎片  长 92分钟
◎主  演 莫蕾娜·巴卡琳 Morena Baccarin
       威廉·夏特纳 William Shatner
       雷·怀斯 Ray Wise
       比尔·莫斯利 Bill Moseley
       达米恩·C·哈斯 Damien C. Haas
       弗洛伦斯·哈尔蒂根 Florence Hartigan
       Steve Geiger

◎标  签 动画 | 血腥 | 暴力 | 恐怖 | 美国 | 猎奇 | 2019 | 美国电影

◎简  介

  为了拯救她的兄弟姐妹,一位年轻女子承担了她的父亲和强大的实体,被称为游戏大师,谁把人类的恶魔阴谋,而她的物种赌博的结果。
Video
ID                                       : 1
Format                                   : AVC
Format/Info                              : Advanced Video Codec
Format profile                           :
Format settings                          : CABAC / 4 Ref Frames
Format settings, CABAC                   : Yes
Format settings, Reference frames        : 4 frames
Codec ID                                 : V_MPEG4/ISO/AVC
Duration                                 : 1 h 31 min
Bit rate                                 : 6 769 kb/s
Width                                    : 1 920 pixels
Height                                   : 1 080 pixels
Display aspect ratio                     : 16:9
Frame rate mode                          : Constant
Frame rate                               : 23.976 (24000/1001/189150) FPS
Color space                              : YUV
Chroma subsampling                       : 4:2:0
Bit depth                                : 8 bits
Scan type                                : Progressive
Bits/(Pixel*Frame)                       : 0.136
Stream size                              : 4.33 GiB (94%)
Writing library                          : x264 core 161 r3048 b86ae3c
Encoding settings                        : cabac=1 / ref=4 / deblock=1:1:1 / analyse=0x3:0x133 / me=umh / subme=9 / psy=1 / psy_rd=0.70:0.00 / mixed_ref=1 / me_range=16 / chroma_me=1 / trellis=2 / 8x8dct=1 / cqm=0 / deadzone=21,11 / fast_pskip=0 / chroma_qp_offset=-2 / threads=24 / lookahead_threads=2 / sliced_threads=0 / nr=0 / decimate=0 / interlaced=0 / bluray_compat=0 / constrained_intra=0 / bframes=3 / b_pyramid=2 / b_adapt=2 / b_bias=0 / direct=3 / weightb=1 / open_gop=0 / weightp=2 / keyint=250 / keyint_min=23 / scenecut=40 / intra_refresh=0 / rc=crf / mbtree=0 / crf=17.0 / qcomp=0.60 / qpmin=0 / qpmax=69 / qpstep=4 / ip_ratio=1.40 / pb_ratio=1.30 / aq=3:1.00
Language                                 : English
Default                                  : Yes
Forced                                   : No
Color range                              : Limited
Matrix coefficients                      : BT.709

Audio
ID                                       : 2
Format                                   : AC-3
Format/Info                              : Audio Coding 3
Commercial name                          : Dolby Digital
Codec ID                                 : A_AC3
Duration                                 : 1 h 31 min
Bit rate mode                            : Constant
Bit rate                                 : 448 kb/s
Channel(s)                               : 6 channels
Channel layout                           : L R C LFE Ls Rs
Sampling rate                            : 48.0 kHz
Frame rate                               : 31.250 FPS (1536 SPF)
Compression mode                         : Lossy
Stream size                              : 294 MiB (6%)
Language                                 : English
Service kind                             : Complete Main
Default                                  : Yes
Forced                                   : No

Text #1
ID                                       : 3
Format                                   : UTF-8
Codec ID                                 : S_TEXT/UTF8
Codec ID/Info                            : UTF-8 Plain Text
Duration                                 : 1 h 30 min
Bit rate                                 : 50 b/s
Count of elements                        : 1347
Stream size                              : 33.3 KiB (0%)
Title                                    : English (SRT)
Language                                 : English
Default                                  : No
Forced                                   : No

Text #2
ID                                       : 4
Format                                   : UTF-8
Codec ID                                 : S_TEXT/UTF8
Codec ID/Info                            : UTF-8 Plain Text
Duration                                 : 1 h 31 min
Bit rate                                 : 55 b/s
Count of elements                        : 1614
Stream size                              : 37.3 KiB (0%)
Title                                    : English (SDH SRT
Language                                 : English
Default                                  : No
Forced                                   : No

Text #3
ID                                       : 5
Format                                   : PGS
Muxing mode                              : zlib
Codec ID                                 : S_HDMV/PGS
Codec ID/Info                            : Picture based subtitle format used on BDs/HD-DVDs
Duration                                 : 1 h 31 min
Bit rate                                 : 27.2 kb/s
Count of elements                        : 3229
Stream size                              : 17.8 MiB (0%)
Title                                    : English (SDH)
Language                                 : English
Default                                  : No
Forced                                   : No

Menu
00:00:00.000                             : :Chapter 01
00:04:20.927                             : :Chapter 02
00:10:36.010                             : :Chapter 03
00:17:38.891                             : :Chapter 04
00:24:11.867                             : :Chapter 05
00:29:07.204                             : :Chapter 06
00:37:10.395                             : :Chapter 07
00:42:50.902                             : :Chapter 08
00:47:37.104                             : :Chapter 09
00:57:00.167                             : :Chapter 10
01:00:07.771                             : :Chapter 11
01:08:04.163                             : :Chapter 12
01:11:01.716                             : :Chapter 13
01:17:18.425                             : :Chapter 14
01:22:18.225                             : :Chapter 15
01:24:37.573                             : :Chapter 16
[/url]



                                                                                                                                                                                                        
                                                                                                                                                                                                                                                                                                                                                                                                                                                                                                                                                                                                                                                                                                                                                                                                                                                        
a9af997fd9af899d3b6780b2d9937f37.zip (46.98 KB, 下载次数: 10)

回复

使用道具 举报

小黑屋|磁力链接吧 |网站地图

本网站所有资源来自网络,如无意中侵犯了您的权益,请发邮件至 [email protected],立即清除相关链接

GMT+8, 2021-4-16 10:05 , Processed in 0.128519 second(s), 22 queries .

Powered by Discuz! X3.2

© 2001-2013 Comsenz Inc.

快速回复 返回顶部 返回列表