磁力链接吧

 找回密码
 立即注册
搜索

舍赫拉查德/塞埃哈萨德 Sheherazade.2018.1080p.BluRay.x264-USURY 13.63GB

[复制链接]
百度云资源 发表于 2021-3-8 20:10:36 | 显示全部楼层 |阅读模式
-->
帖子完整标题:舍赫拉查德/塞埃哈萨德 Sheherazade.2018.1080p.BluRay.x264-USURY 13.63GB


[/url]

◎译  名 舍赫拉查德/塞埃哈萨德
◎片  名 Shéhérazade
◎年  代 2018
◎产  地 法国
◎类  别 剧情
◎语  言 法语
◎上映日期 2018-09-05(法国)
◎IMDb评分  7.1/10 from 1603 users
◎  
◎豆瓣评分 6.6/10 from 178 users
◎ 
◎片  长 109分钟
◎导  演 让-贝尔纳·马赫兰 Jean-Bernard Marlin
◎编  剧 让-贝尔纳·马赫兰 Jean-Bernard Marlin / 凯瑟琳·派勒 Catherine Paille
◎主  演 迪伦·罗伯特 Dylan Robert
       肯扎·福特斯 Kenza Fortas

◎标  签 法国 | 法国电影 | 犯罪 | 青少年 | 剧情 | 2018 | 社会边缘人 | 马赛

◎简  介

  17岁的扎克刚刚出狱。被母亲遗弃的他在马赛鱼龙混杂的街区闲逛,后来,他遇到了少女山鲁佐德……

◎获奖情况

  第44届法国凯撒电影奖 ?(2019)
  最佳新人男演员 迪伦·罗伯特
  最佳新人女演员 肯扎·福特斯
  最佳处女作
Video
ID                                       : 1
Format                                   : AVC
Format/Info                              : Advanced Video Codec
Format profile                           :
Format settings                          : CABAC / 5 Ref Frames
Format settings, CABAC                   : Yes
Format settings, Reference frames        : 5 frames
Codec ID                                 : V_MPEG4/ISO/AVC
Duration                                 : 1 h 51 min
Bit rate                                 : 14.4 Mb/s
Width                                    : 1 920 pixels
Height                                   : 804 pixels
Display aspect ratio                     : 2.40:1
Frame rate mode                          : Constant
Frame rate                               : 23.976 (24000/1001/189150) FPS
Color space                              : YUV
Chroma subsampling                       : 4:2:0
Bit depth                                : 8 bits
Scan type                                : Progressive
Bits/(Pixel*Frame)                       : 0.389
Stream size                              : 11.2 GiB (82%)
Writing library                          : x264 core 161 r3048 b86ae3c
Encoding settings                        : cabac=1 / ref=5 / deblock=1:-3:-3 / analyse=0x3:0x133 / me=umh / subme=10 / psy=1 / psy_rd=1.00:0.15 / mixed_ref=1 / me_range=24 / chroma_me=1 / trellis=2 / 8x8dct=1 / cqm=0 / deadzone=21,11 / fast_pskip=1 / chroma_qp_offset=-3 / threads=18 / lookahead_threads=3 / sliced_threads=0 / nr=0 / decimate=1 / interlaced=0 / bluray_compat=0 / constrained_intra=0 / bframes=8 / b_pyramid=2 / b_adapt=2 / b_bias=0 / direct=3 / weightb=1 / open_gop=0 / weightp=2 / keyint=250 / keyint_min=23 / scenecut=40 / intra_refresh=0 / rc_lookahead=60 / rc=crf / mbtree=1 / crf=18.0 / qcomp=0.60 / qpmin=0 / qpmax=69 / qpstep=4 / ip_ratio=1.40 / aq=3:0.60
Language                                 : English
Default                                  : Yes
Forced                                   : No
Color range                              : Limited
Matrix coefficients                      : BT.709

Audio
ID                                       : 2
Format                                   : DTS XLL
Format/Info                              : Digital Theater Systems
Commercial name                          : DTS-HD Master Audio
Codec ID                                 : A_DTS
Duration                                 : 1 h 51 min
Bit rate mode                            : Variable
Bit rate                                 : 3 129 kb/s
Channel(s)                               : 6 channels
Channel layout                           : C L R Ls Rs LFE
Sampling rate                            : 48.0 kHz
Frame rate                               : 93.750 FPS (512 SPF)
Bit depth                                : 24 bits
Compression mode                         : Lossless
Stream size                              : 2.43 GiB (18%)
Language                                 : French
Default                                  : Yes
Forced                                   : No

Text #1
ID                                       : 3
Format                                   : UTF-8
Codec ID                                 : S_TEXT/UTF8
Codec ID/Info                            : UTF-8 Plain Text
Duration                                 : 1 h 50 min
Bit rate                                 : 54 b/s
Count of elements                        : 1627
Stream size                              : 44.7 KiB (0%)
Title                                    : English
Language                                 : English
Default                                  : Yes
Forced                                   : Yes

Text #2
ID                                       : 4
Format                                   : UTF-8
Codec ID                                 : S_TEXT/UTF8
Codec ID/Info                            : UTF-8 Plain Text
Duration                                 : 1 h 50 min
Bit rate                                 : 61 b/s
Count of elements                        : 1491
Stream size                              : 50.0 KiB (0%)
Title                                    : French SDH
Language                                 : French
Default                                  : No
Forced                                   : No

Text #3
ID                                       : 5
Format                                   : PGS
Muxing mode                              : zlib
Codec ID                                 : S_HDMV/PGS
Codec ID/Info                            : Picture based subtitle format used on BDs/HD-DVDs
Duration                                 : 1 h 50 min
Bit rate                                 : 10.4 kb/s
Count of elements                        : 2983
Stream size                              : 8.19 MiB (0%)
Title                                    : French SDH
Language                                 : French
Default                                  : No
Forced                                   : No

Text #4
ID                                       : 6
Format                                   : UTF-8
Codec ID                                 : S_TEXT/UTF8
Codec ID/Info                            : UTF-8 Plain Text
Duration                                 : 1 h 51 min
Bit rate                                 : 51 b/s
Count of elements                        : 1642
Stream size                              : 42.0 KiB (0%)
Title                                    : German
Language                                 : German
Default                                  : No
Forced                                   : No

Text #5
ID                                       : 7
Format                                   : UTF-8
Codec ID                                 : S_TEXT/UTF8
Codec ID/Info                            : UTF-8 Plain Text
Duration                                 : 1 h 51 min
Bit rate                                 : 79 b/s
Count of elements                        : 1630
Stream size                              : 65.0 KiB (0%)
Title                                    : Russian
Language                                 : Russian
Default                                  : No
Forced                                   : No

Text #6
ID                                       : 8
Format                                   : UTF-8
Codec ID                                 : S_TEXT/UTF8
Codec ID/Info                            : UTF-8 Plain Text
Duration                                 : 1 h 51 min
Bit rate                                 : 55 b/s
Count of elements                        : 1642
Stream size                              : 45.0 KiB (0%)
Title                                    : Turkish
Language                                 : Turkish
Default                                  : No
Forced                                   : No

Menu
00:00:00.000                             : en:00:00:00.000
00:09:41.331                             : en:00:09:41.331
00:20:12.878                             : en:00:20:12.878
00:31:52.536                             : en:00:31:52.536
00:41:47.797                             : en:00:41:47.797
00:53:34.711                             : en:00:53:34.711
01:02:38.004                             : en:01:02:38.004
01:09:49.060                             : en:01:09:49.060
01:18:00.467                             : en:01:18:00.467
01:27:19.234                             : en:01:27:19.234
01:38:27.235                             : en:01:38:27.235
01:47:44.208                             : en:01:47:44.208
[/url]



                                                                                                                                                                                                        
                                                                                                                                                                                                                                                                                                                                                                                                                                                                                                                                                                                                                                                                                                                                                                                                                                                        
965b4d95d879b4c91ea3d056cf70c734.zip (68.85 KB, 下载次数: 8)

回复

使用道具 举报

小黑屋|磁力链接吧 |网站地图

本网站所有资源来自网络,如无意中侵犯了您的权益,请发邮件至 [email protected],立即清除相关链接

GMT+8, 2021-4-19 21:05 , Processed in 0.167373 second(s), 22 queries .

Powered by Discuz! X3.2

© 2001-2013 Comsenz Inc.

快速回复 返回顶部 返回列表