磁力链接吧

 找回密码
 立即注册
搜索

[BD-4K] 寻龙传说/寻龙使者:拉雅 Raya.and.the.Last.Dragon.2021.2160p.DSNP.WEB...

[复制链接]
百度云资源 发表于 2021-3-8 19:19:38 | 显示全部楼层 |阅读模式
-->
帖子完整标题:寻龙传说/寻龙使者:拉雅 Raya.and.the.Last.Dragon.2021.2160p.DSNP.WEB-DL.x265.10bit.HDR.DDP5.1-NOGRP 12.56GB


[/url]

◎译  名 寻龙传说/寻龙使者:拉雅(台)/拉雅和最后的龙/瑞亚和最后一条龙/魔龙王国(港)
◎片  名 Raya and The Last Dragon
◎年  代 2021
◎产  地 美国
◎类  别 动画 / 奇幻 / 冒险
◎语  言 英语
◎上映日期 2021-03-05(中国大陆/美国)
◎IMDb评分  7.8/10 from 2686 users
◎  
◎豆瓣评分 7.5/10 from 18222 users
◎ 
◎片  长 114分钟
◎导  演 唐·霍尔 Don Hall / 卡洛斯·洛佩斯·埃斯特拉达 Carlos López Estrada / 保罗·布里格斯 Paul Briggs / 约翰·瑞帕 John Ripa
◎编  剧 阮基 Qui Nguyen / 阿黛勒·林 Adele Lim / 保罗·布里格斯 Paul Briggs / 唐·霍尔 Don Hall / 卡洛斯·洛佩斯·埃斯特拉达 Carlos López Estrada / 基尔·默里 Kiel Murray / 约翰·瑞帕 John Ripa / 迪恩·威林斯 Dean Wellins
◎主  演 凯莉·玛丽·陈 Kelly Marie Tran
       奥卡菲娜 Awkwafina
       嘉玛·陈 Gemma Chan
       金大贤 Daniel Dae Kim
       吴珊卓 Sandra Oh
       本尼迪克特·王 Benedict Wong
       伊扎克·王 Izaac Wang
       塔莉娅·陈 Thalia Tran
       艾伦·图代克 Alan Tudyk
       迪辰·拉克曼 Dichen Lachman
       帕蒂·哈里森 Patti Harrison
       姜成镐 Sung Kang
       罗斯·巴特勒 Ross Butler
       乔娜·肖 Jona Xiao
       宋静秀 Lucille Soong
       弗朗克西斯·周 Fran?ois Chau
       保罗·扬 Paul Yen
       丽莎·德尔·门多 Liza Del Mundo
       塔妮亚·古纳迪 Tania Gunadi
       珍妮·关 Jennie Kwan
       卢锡安·佩雷兹 Lucian Perez
       文森特·罗德里格兹三世 Vincent Rodriguez III
       JB Tadena
       赵丽颖 Liying Zhao

◎标  签 迪士尼 | 动画 | 奇幻 | Disney | 动画电影 | 美国 | +华特·迪士尼WaltDisney | 电影

◎简  介

  很久以前,在充满奇幻色彩的龙佑之邦,人类和龙和谐地生活在一起。但当一股邪恶的力量袭来,龙牺牲了自己来拯救人类。500年后,同样的邪恶力量卷土重来,只有一个孤独的战士拉雅(凯莉·玛丽·陈 配音)承担重任,追踪传说中的最后一条龙,以修复这块破碎的土地,团结分裂的人民。在她的旅程中,她也会逐渐了解到拯救世界不仅仅需要一条龙,还需要信任和团队合作。
Video
ID                                       : 1
Format                                   : HEVC
Format/Info                              : High Efficiency Video Coding
Format profile                           : Main @High
HDR format                               : SMPTE ST 2086, HDR10 compatible
Codec ID                                 : V_MPEGH/ISO/HEVC
Duration                                 : 1 h 47 min
Bit rate                                 : 16.5 Mb/s
Width                                    : 3 840 pixels
Height                                   : 2 160 pixels
Display aspect ratio                     : 16:9
Frame rate mode                          : Constant
Frame rate                               : 23.976 (24000/1001/189150) FPS
Color space                              : YUV
Chroma subsampling                       : 4:2:0
Bit depth                                : 10 bits
Bits/(Pixel*Frame)                       : 0.083
Stream size                              : 12.4 GiB (98%)
Default                                  : Yes
Forced                                   : No
Color range                              : Limited
Color primaries                          : BT.2020
Transfer characteristics                 : PQ
Matrix coefficients                      : BT.2020 non-constant
Mastering display color primaries        : Display P3
Mastering display luminance              : min: 0.0000 cd/m2, max: 1000 cd/m2

Audio
ID                                       : 2
Format                                   : E-AC-3
Format/Info                              : Enhanced AC-3
Commercial name                          : Dolby Digital Plus
Codec ID                                 : A_EAC3
Duration                                 : 1 h 47 min
Bit rate mode                            : Constant
Bit rate                                 : 256 kb/s
Channel(s)                               : 6 channels
Channel layout                           : L R C LFE Ls Rs
Sampling rate                            : 48.0 kHz
Frame rate                               : 31.250 FPS (1536 SPF)
Compression mode                         : Lossy
Stream size                              : 197 MiB (2%)
Title                                    : English
Language                                 : English
Service kind                             : Complete Main
Default                                  : Yes
Forced                                   : No

Text #1
ID                                       : 3
Format                                   : UTF-8
Codec ID                                 : S_TEXT/UTF8
Codec ID/Info                            : UTF-8 Plain Text
Duration                                 : 1 h 45 min
Bit rate                                 : 42 b/s
Count of elements                        : 789
Stream size                              : 33.2 KiB (0%)
Title                                    : Dansk
Language                                 : Danish
Default                                  : No
Forced                                   : No

Text #2
ID                                       : 4
Format                                   : UTF-8
Codec ID                                 : S_TEXT/UTF8
Codec ID/Info                            : UTF-8 Plain Text
Duration                                 : 1 h 45 min
Bit rate                                 : 42 b/s
Count of elements                        : 1179
Stream size                              : 32.8 KiB (0%)
Title                                    : Deutsch
Language                                 : German
Default                                  : No
Forced                                   : No

Text #3
ID                                       : 5
Format                                   : UTF-8
Codec ID                                 : S_TEXT/UTF8
Codec ID/Info                            : UTF-8 Plain Text
Duration                                 : 1 h 46 min
Bit rate                                 : 53 b/s
Count of elements                        : 1116
Stream size                              : 41.6 KiB (0%)
Title                                    : Deutsch (SDH)
Language                                 : German
Default                                  : No
Forced                                   : No

Text #4
ID                                       : 6
Format                                   : UTF-8
Codec ID                                 : S_TEXT/UTF8
Codec ID/Info                            : UTF-8 Plain Text
Duration                                 : 1 h 37 min
Bit rate                                 : 68 b/s
Count of elements                        : 1919
Stream size                              : 48.8 KiB (0%)
Title                                    : English (SDH)
Language                                 : English
Default                                  : No
Forced                                   : No

Text #5
ID                                       : 7
Format                                   : UTF-8
Codec ID                                 : S_TEXT/UTF8
Codec ID/Info                            : UTF-8 Plain Text
Duration                                 : 1 h 45 min
Bit rate                                 : 41 b/s
Count of elements                        : 1157
Stream size                              : 32.4 KiB (0%)
Title                                    : Espa?±ol
Language                                 : Spanish
Default                                  : No
Forced                                   : No

Text #6
ID                                       : 8
Format                                   : UTF-8
Codec ID                                 : S_TEXT/UTF8
Codec ID/Info                            : UTF-8 Plain Text
Duration                                 : 1 h 34 min
Bit rate                                 : 50 b/s
Count of elements                        : 1159
Stream size                              : 34.8 KiB (0%)
Title                                    : Espa?±ol (Latinoamericano)
Language                                 : Spanish
Default                                  : No
Forced                                   : No

Text #7
ID                                       : 9
Format                                   : UTF-8
Codec ID                                 : S_TEXT/UTF8
Codec ID/Info                            : UTF-8 Plain Text
Duration                                 : 1 h 37 min
Bit rate                                 : 54 b/s
Count of elements                        : 1171
Stream size                              : 39.0 KiB (0%)
Title                                    : Espa?±ol (Latinoamericano) (SDH)
Language                                 : Spanish
Default                                  : No
Forced                                   : No

Text #8
ID                                       : 10
Format                                   : UTF-8
Codec ID                                 : S_TEXT/UTF8
Codec ID/Info                            : UTF-8 Plain Text
Duration                                 : 1 h 45 min
Bit rate                                 : 43 b/s
Count of elements                        : 1114
Stream size                              : 33.4 KiB (0%)
Title                                    : Fran?§ais
Language                                 : French
Default                                  : No
Forced                                   : No

Text #9
ID                                       : 11
Format                                   : UTF-8
Codec ID                                 : S_TEXT/UTF8
Codec ID/Info                            : UTF-8 Plain Text
Duration                                 : 1 h 33 min
Bit rate                                 : 48 b/s
Count of elements                        : 1155
Stream size                              : 33.1 KiB (0%)
Title                                    : Fran?§ais (Canadien)
Language                                 : French
Default                                  : No
Forced                                   : No

Text #10
ID                                       : 12
Format                                   : UTF-8
Codec ID                                 : S_TEXT/UTF8
Codec ID/Info                            : UTF-8 Plain Text
Duration                                 : 1 h 34 min
Bit rate                                 : 78 b/s
Count of elements                        : 1965
Stream size                              : 54.6 KiB (0%)
Title                                    : Fran?§ais (Canadien) (SDH)
Language                                 : French
Default                                  : No
Forced                                   : No

Text #11
ID                                       : 13
Format                                   : UTF-8
Codec ID                                 : S_TEXT/UTF8
Codec ID/Info                            : UTF-8 Plain Text
Duration                                 : 1 h 47 min
Bit rate                                 : 55 b/s
Count of elements                        : 1604
Stream size                              : 43.6 KiB (0%)
Title                                    : Fran?§ais (SDH)
Language                                 : French
Default                                  : No
Forced                                   : No

Text #12
ID                                       : 14
Format                                   : UTF-8
Codec ID                                 : S_TEXT/UTF8
Codec ID/Info                            : UTF-8 Plain Text
Duration                                 : 1 h 45 min
Bit rate                                 : 42 b/s
Count of elements                        : 1160
Stream size                              : 32.5 KiB (0%)
Title                                    : Italiano
Language                                 : Italian
Default                                  : No
Forced                                   : No

Text #13
ID                                       : 15
Format                                   : UTF-8
Codec ID                                 : S_TEXT/UTF8
Codec ID/Info                            : UTF-8 Plain Text
Duration                                 : 1 h 45 min
Bit rate                                 : 38 b/s
Count of elements                        : 911
Stream size                              : 30.1 KiB (0%)
Title                                    : Nederlands
Language                                 : Dutch
Default                                  : No
Forced                                   : No

Text #14
ID                                       : 16
Format                                   : UTF-8
Codec ID                                 : S_TEXT/UTF8
Codec ID/Info                            : UTF-8 Plain Text
Duration                                 : 1 h 45 min
Bit rate                                 : 39 b/s
Count of elements                        : 1160
Stream size                              : 30.6 KiB (0%)
Title                                    : Norsk
Language                                 : Norwegian
Default                                  : No
Forced                                   : No

Text #15
ID                                       : 17
Format                                   : UTF-8
Codec ID                                 : S_TEXT/UTF8
Codec ID/Info                            : UTF-8 Plain Text
Duration                                 : 1 h 45 min
Bit rate                                 : 44 b/s
Count of elements                        : 1156
Stream size                              : 34.7 KiB (0%)
Title                                    : Portugu?as
Language                                 : Portuguese
Default                                  : No
Forced                                   : No

Text #16
ID                                       : 18
Format                                   : UTF-8
Codec ID                                 : S_TEXT/UTF8
Codec ID/Info                            : UTF-8 Plain Text
Duration                                 : 1 h 45 min
Bit rate                                 : 44 b/s
Count of elements                        : 1156
Stream size                              : 34.8 KiB (0%)
Title                                    : Portugu?as (Brasil)
Language                                 : Portuguese
Default                                  : No
Forced                                   : No

Text #17
ID                                       : 19
Format                                   : UTF-8
Codec ID                                 : S_TEXT/UTF8
Codec ID/Info                            : UTF-8 Plain Text
Duration                                 : 1 h 35 min
Bit rate                                 : 61 b/s
Count of elements                        : 1235
Stream size                              : 42.8 KiB (0%)
Title                                    : Portugu?as (Brasil) (SDH)
Language                                 : Portuguese
Default                                  : No
Forced                                   : No

Text #18
ID                                       : 20
Format                                   : UTF-8
Codec ID                                 : S_TEXT/UTF8
Codec ID/Info                            : UTF-8 Plain Text
Duration                                 : 1 h 45 min
Bit rate                                 : 39 b/s
Count of elements                        : 1155
Stream size                              : 30.7 KiB (0%)
Title                                    : Suomi
Language                                 : Finnish
Default                                  : No
Forced                                   : No

Text #19
ID                                       : 21
Format                                   : UTF-8
Codec ID                                 : S_TEXT/UTF8
Codec ID/Info                            : UTF-8 Plain Text
Duration                                 : 1 h 34 min
Bit rate                                 : 45 b/s
Count of elements                        : 877
Stream size                              : 31.6 KiB (0%)
Title                                    : Svenska
Language                                 : Swedish
Default                                  : No
Forced                                   : No

Text #20
ID                                       : 22
Format                                   : UTF-8
Codec ID                                 : S_TEXT/UTF8
Codec ID/Info                            : UTF-8 Plain Text
Duration                                 : 1 h 45 min
Bit rate                                 : 44 b/s
Count of elements                        : 1155
Stream size                              : 34.1 KiB (0%)
Title                                    : ??slenska
Language                                 : Icelandic
Default                                  : No
Forced                                   : No




                                                                                                                                                                                                        
                                                                                                                                                                                                                                                                                                                                                                                                                                                                                                                                                                                                                                                                                                                                                                                                                                                        
8f39e7f3c565a7989c33e36b0ef0cec6.zip (63.57 KB, 下载次数: 22)

回复

使用道具 举报

小黑屋|磁力链接吧 |网站地图

本网站所有资源来自网络,如无意中侵犯了您的权益,请发邮件至 [email protected],立即清除相关链接

GMT+8, 2021-4-16 11:09 , Processed in 0.190921 second(s), 22 queries .

Powered by Discuz! X3.2

© 2001-2013 Comsenz Inc.

快速回复 返回顶部 返回列表