磁力链接吧

 找回密码
 立即注册
搜索

[BD-4K] 进入地狱/深入火心 Into.The.Inferno.2016.2160p.NF.WEB-DL.x265.10bit.SD...

[复制链接]
百度云资源 发表于 2021-3-8 19:19:38 | 显示全部楼层 |阅读模式
-->
帖子完整标题:进入地狱/深入火心 Into.The.Inferno.2016.2160p.NF.WEB-DL.x265.10bit.SDR.DD5.1-PLAYREADY 12.05GB


[/url]

◎译  名 进入地狱/深入火心(港/台)
◎片  名 Into the Inferno
◎年  代 2016
◎产  地 英国,德国,加拿大
◎类  别 纪录片
◎语  言 英语
◎上映日期 2016-09-03(特柳赖德电影节) / 2016-10-28(美国)
◎IMDb评分  7.2/10 from 7538 users
◎  
◎豆瓣评分 7.9/10 from 753 users
◎ 
◎片  长 104分钟
◎导  演 沃纳·赫尔佐格 Werner Herzog
◎编  剧 沃纳·赫尔佐格 Werner Herzog
◎主  演 沃纳·赫尔佐格 Werner Herzog

◎标  签 纪录片 | 英国 | 沃纳·赫尔佐格 | 2016 | 火山 | Documentary | WernerHerzog | 美国

◎简  介

  烈焰熔岩,一幅幅煉獄似的末世奇觀,景象震撼。拍罷《蘇弗里耶火山》(1976)後,荷索對火山的熱情越燒越旺,遇上同是狂迷的火山學家奧本海默,一拍即合並肩走訪印尼、冰島、埃塞俄比亞等地,看熔漿爆發的原始威力,更看人心依附的信仰神靈。科學助人避災,卻難阻人着魔。瓦努阿圖村民相信熔岩是惡魔發怒的表徵;日惹王獻祭祈求海洋女神與火山鬼神和諧共處;地主建造雞教堂朝向火山祈禱;村民信奉住近火山的美國大兵有日會帶來西方家電;背靠革命聖山的偉大領導人金正日,更令朝鮮人民瘋狂膜拜。火山,令人聯想到文明某日或會灰飛煙滅。其毀滅性的美麗,有如愛情,越危險,越教人着迷至不能自拔。
Video
ID                                       : 1
Format                                   : HEVC
Format/Info                              : High Efficiency Video Coding
Format profile                           : Main @Main
Codec ID                                 : V_MPEGH/ISO/HEVC
Duration                                 : 1 h 47 min
Bit rate                                 : 15.7 Mb/s
Width                                    : 3 840 pixels
Height                                   : 2 160 pixels
Display aspect ratio                     : 16:9
Frame rate mode                          : Constant
Frame rate                               : 23.976 (24000/1001/189150) FPS
Color space                              : YUV
Chroma subsampling                       : 4:2:0
Bit depth                                : 10 bits
Bits/(Pixel*Frame)                       : 0.079
Stream size                              : 11.8 GiB (98%)
Default                                  : Yes
Forced                                   : No
Color range                              : Limited
Color primaries                          : BT.709
Transfer characteristics                 : BT.709
Matrix coefficients                      : BT.709

Audio
ID                                       : 2
Format                                   : AC-3
Format/Info                              : Audio Coding 3
Commercial name                          : Dolby Digital
Codec ID                                 : A_AC3
Duration                                 : 1 h 47 min
Bit rate mode                            : Constant
Bit rate                                 : 384 kb/s
Channel(s)                               : 6 channels
Channel layout                           : L R C LFE Ls Rs
Sampling rate                            : 48.0 kHz
Frame rate                               : 31.250 FPS (1536 SPF)
Compression mode                         : Lossy
Stream size                              : 295 MiB (2%)
Language                                 : English
Service kind                             : Complete Main
Default                                  : Yes
Forced                                   : No
Encoded date                             : UTC 2017-04-05 12:53:44

Text #1
ID                                       : 3
Format                                   : UTF-8
Codec ID                                 : S_TEXT/UTF8
Codec ID/Info                            : UTF-8 Plain Text
Duration                                 : 1 h 13 min
Bit rate                                 : 4 b/s
Count of elements                        : 62
Stream size                              : 2.51 KiB (0%)
Title                                    : Off
Language                                 : English
Default                                  : Yes
Forced                                   : Yes

Text #2
ID                                       : 4
Format                                   : UTF-8
Codec ID                                 : S_TEXT/UTF8
Codec ID/Info                            : UTF-8 Plain Text
Duration                                 : 1 h 44 min
Bit rate                                 : 66 b/s
Count of elements                        : 1244
Stream size                              : 51.1 KiB (0%)
Title                                    : English
Language                                 : English
Default                                  : No
Forced                                   : No

Text #3
ID                                       : 5
Format                                   : UTF-8
Codec ID                                 : S_TEXT/UTF8
Codec ID/Info                            : UTF-8 Plain Text
Duration                                 : 1 h 46 min
Bit rate                                 : 62 b/s
Count of elements                        : 1132
Stream size                              : 48.9 KiB (0%)
Title                                    : Spanish
Language                                 : Spanish
Default                                  : No
Forced                                   : No

Text #4
ID                                       : 6
Format                                   : UTF-8
Codec ID                                 : S_TEXT/UTF8
Codec ID/Info                            : UTF-8 Plain Text
Duration                                 : 1 h 46 min
Bit rate                                 : 63 b/s
Count of elements                        : 1137
Stream size                              : 49.2 KiB (0%)
Title                                    : French
Language                                 : French
Default                                  : No
Forced                                   : No

Text #5
ID                                       : 7
Format                                   : UTF-8
Codec ID                                 : S_TEXT/UTF8
Codec ID/Info                            : UTF-8 Plain Text
Duration                                 : 1 h 46 min
Bit rate                                 : 66 b/s
Count of elements                        : 1111
Stream size                              : 52.2 KiB (0%)
Title                                    : German
Language                                 : German
Default                                  : No
Forced                                   : No

Text #6
ID                                       : 8
Format                                   : UTF-8
Codec ID                                 : S_TEXT/UTF8
Codec ID/Info                            : UTF-8 Plain Text
Duration                                 : 1 h 46 min
Bit rate                                 : 63 b/s
Count of elements                        : 1142
Stream size                              : 49.6 KiB (0%)
Title                                    : Italian
Language                                 : Italian
Default                                  : No
Forced                                   : No




                                                                                                                                                                                                        
                                                                                                                                                                                                                                                                                                                                                                                                                                                                                                                                                                                                                                                                                                                                                                                                                                                        
f0f4eecf6e685ea21292b6f54c04c943.zip (60.96 KB, 下载次数: 5)

回复

使用道具 举报

小黑屋|磁力链接吧 |网站地图

本网站所有资源来自网络,如无意中侵犯了您的权益,请发邮件至 [email protected],立即清除相关链接

GMT+8, 2021-4-16 08:13 , Processed in 0.168649 second(s), 22 queries .

Powered by Discuz! X3.2

© 2001-2013 Comsenz Inc.

快速回复 返回顶部 返回列表