磁力链接吧

 找回密码
 立即注册
搜索

[BD-4K] 大象女王 The.Elephant.Queen.2019.2160p.ATVP.WEB-DL.DDP5.1.Atmos.DV.x265-i...

[复制链接]
百度云资源 发表于 2021-3-8 19:19:38 | 显示全部楼层 |阅读模式
-->
帖子完整标题:大象女王 The.Elephant.Queen.2019.2160p.ATVP.WEB-DL.DDP5.1.Atmos.DV.x265-iKA 16.58GB


[/url]

◎译  名 大象女王
◎片  名 The Elephant Queen
◎年  代 2018
◎产  地 英国,肯尼亚
◎类  别 纪录片
◎语  言 英语
◎上映日期 2018-09-08(多伦多国际电影节)
◎IMDb评分  7.8/10 from 1458 users
◎  
◎豆瓣评分 9.3/10 from 3145 users
◎ 
◎片  长 96分钟
◎主  演 切瓦特·埃加福 Chiwetel Ejiofor

◎标  签 纪录片 | 动物 | 自然 | 英国 | 肯尼亚 | AppleTV+ | 紀錄片 | 泪目

◎简  介

  雅典娜是一位母亲,当他们被迫离开他们的水坑时,她会尽她所能保护她的牧群。这一史诗般的旅程,由Chiwetel Ejiofor讲述,带领观众穿越非洲大草原,进入大象家庭的核心。一个关于爱,失去和回家的故事。
Video
ID                                       : 1
Format                                   : HEVC
Format/Info                              : High Efficiency Video Coding
Format profile                           : Main @High
HDR format                               : Dolby Vision, Version 1.0, dvhe.05.06, BL+RPU
Codec ID                                 : dvhe
Codec ID/Info                            : High Efficiency Video Coding with Dolby Vision
Duration                                 : 1 h 36 min
Bit rate                                 : 23.9 Mb/s
Width                                    : 3 840 pixels
Height                                   : 2 080 pixels
Original height                          : 2 076 pixels
Display aspect ratio                     : 1.85:1
Original display aspect ratio            : 1.85:1
Frame rate mode                          : Constant
Frame rate                               : 23.976 (23976/1000/189150) FPS
Color space                              : YUV
Chroma subsampling                       : 4:2:0
Bit depth                                : 10 bits
Bits/(Pixel*Frame)                       : 0.125
Stream size                              : 16.1 GiB (97%)
Default                                  : Yes
Alternate group                          : 1
Encoded date                             : UTC 2021-03-05 13:53:02
Tagged date                              : UTC 2021-03-05 14:31:11
Codec configuration box                  : hvcC+dvcC

Audio
ID                                       : 2
Format                                   : E-AC-3 JOC
Format/Info                              : Enhanced AC-3 with Joint Object Coding
Commercial name                          : Dolby Digital Plus with Dolby Atmos
Codec ID                                 : ec-3
Duration                                 : 1 h 36 min
Bit rate mode                            : Constant
Bit rate                                 : 768 kb/s
Channel(s)                               : 6 channels
Channel layout                           : L R C LFE Ls Rs
Sampling rate                            : 48.0 kHz
Frame rate                               : 31.250 FPS (1536 SPF)
Compression mode                         : Lossy
Stream size                              : 528 MiB (3%)
Language                                 : English
Service kind                             : Complete Main
Default                                  : Yes
Alternate group                          : 2
Encoded date                             : UTC 2021-03-05 13:53:02
Tagged date                              : UTC 2021-03-05 14:31:11
Complexity index                         : Not present / 16
Number of dynamic objects                : 15
Bed channel count                        : 1 channel
Bed channel configuration                : LFE

Text #1
ID                                       : 3
Format                                   : Timed Text
Codec ID                                 : tx3g
Duration                                 : 1 h 36 min
Bit rate mode                            : Variable
Bit rate                                 : 35 b/s
Stream size                              : 24.3 KiB (0%)
Title                                    : German
Language                                 : German
Forced                                   : No
Encoded date                             : UTC 2021-03-05 14:31:11
Tagged date                              : UTC 2021-03-05 14:31:11

Text #2
ID                                       : 4
Format                                   : Timed Text
Codec ID                                 : tx3g
Duration                                 : 1 h 36 min
Bit rate mode                            : Variable
Bit rate                                 : 32 b/s
Stream size                              : 22.3 KiB (0%)
Title                                    : Fran?ais (Canadien)
Language                                 : French
Forced                                   : No
Encoded date                             : UTC 2021-03-05 14:31:11
Tagged date                              : UTC 2021-03-05 14:31:11

Text #3
ID                                       : 5
Format                                   : Timed Text
Codec ID                                 : tx3g
Duration                                 : 1 h 36 min
Bit rate mode                            : Variable
Bit rate                                 : 33 b/s
Stream size                              : 23.4 KiB (0%)
Title                                    : Italiano
Language                                 : Italian
Forced                                   : No
Encoded date                             : UTC 2021-03-05 14:31:11
Tagged date                              : UTC 2021-03-05 14:31:11

Text #4
ID                                       : 6
Format                                   : Timed Text
Codec ID                                 : tx3g
Duration                                 : 1 h 36 min
Bit rate mode                            : Variable
Bit rate                                 : 32 b/s
Stream size                              : 22.3 KiB (0%)
Title                                    : Espa?ol (Latinoamericano)
Language                                 : Spanish
Forced                                   : No
Encoded date                             : UTC 2021-03-05 14:31:11
Tagged date                              : UTC 2021-03-05 14:31:11

Text #5
ID                                       : 7
Format                                   : Timed Text
Codec ID                                 : tx3g
Duration                                 : 1 h 36 min
Bit rate mode                            : Variable
Bit rate                                 : 30 b/s
Stream size                              : 21.1 KiB (0%)
Title                                    : Norsk
Language                                 : Norwegian
Forced                                   : No
Encoded date                             : UTC 2021-03-05 14:31:11
Tagged date                              : UTC 2021-03-05 14:31:11

Text #6
ID                                       : 8
Format                                   : Timed Text
Codec ID                                 : tx3g
Duration                                 : 1 h 36 min
Bit rate mode                            : Variable
Bit rate                                 : 31 b/s
Stream size                              : 21.9 KiB (0%)
Title                                    : Svenska
Language                                 : Swedish
Forced                                   : No
Encoded date                             : UTC 2021-03-05 14:31:11
Tagged date                              : UTC 2021-03-05 14:31:11

Text #7
ID                                       : 9
Format                                   : Timed Text
Codec ID                                 : tx3g
Duration                                 : 1 h 36 min
Bit rate mode                            : Variable
Bit rate                                 : 31 b/s
Stream size                              : 22.1 KiB (0%)
Title                                    : Fran?ais
Language                                 : French
Forced                                   : No
Encoded date                             : UTC 2021-03-05 14:31:11
Tagged date                              : UTC 2021-03-05 14:31:11

Text #8
ID                                       : 10
Format                                   : Timed Text
Codec ID                                 : tx3g
Duration                                 : 1 h 36 min
Bit rate mode                            : Variable
Bit rate                                 : 31 b/s
Stream size                              : 21.5 KiB (0%)
Title                                    : Português (Brasil)
Language                                 : Portuguese
Forced                                   : No
Encoded date                             : UTC 2021-03-05 14:31:11
Tagged date                              : UTC 2021-03-05 14:31:11

Text #9
ID                                       : 11
Format                                   : Timed Text
Codec ID                                 : tx3g
Duration                                 : 1 h 36 min
Bit rate mode                            : Variable
Bit rate                                 : 29 b/s
Stream size                              : 20.3 KiB (0%)
Title                                    : Nederlands
Language                                 : Dutch
Forced                                   : No
Encoded date                             : UTC 2021-03-05 14:31:11
Tagged date                              : UTC 2021-03-05 14:31:11

Text #10
ID                                       : 12
Format                                   : Timed Text
Codec ID                                 : tx3g
Duration                                 : 1 h 36 min
Bit rate mode                            : Variable
Bit rate                                 : 29 b/s
Stream size                              : 20.4 KiB (0%)
Title                                    : Suomi
Language                                 : Finnish
Forced                                   : No
Encoded date                             : UTC 2021-03-05 14:31:11
Tagged date                              : UTC 2021-03-05 14:31:11

Text #11
ID                                       : 13
Format                                   : Timed Text
Codec ID                                 : tx3g
Duration                                 : 1 h 36 min
Bit rate mode                            : Variable
Bit rate                                 : 30 b/s
Stream size                              : 21.0 KiB (0%)
Title                                    : Português
Language                                 : Portuguese
Forced                                   : No
Encoded date                             : UTC 2021-03-05 14:31:11
Tagged date                              : UTC 2021-03-05 14:31:11

Text #12
ID                                       : 14
Format                                   : Timed Text
Codec ID                                 : tx3g
Duration                                 : 1 h 36 min
Bit rate mode                            : Variable
Bit rate                                 : 30 b/s
Stream size                              : 21.1 KiB (0%)
Title                                    : Espa?ol
Language                                 : Spanish
Forced                                   : No
Encoded date                             : UTC 2021-03-05 14:31:11
Tagged date                              : UTC 2021-03-05 14:31:11

Text #13
ID                                       : 15
Format                                   : Timed Text
Codec ID                                 : tx3g
Duration                                 : 1 h 33 min
Bit rate mode                            : Variable
Bit rate                                 : 34 b/s
Stream size                              : 23.2 KiB (0%)
Title                                    : English (SDH)
Language                                 : English
Forced                                   : No
Encoded date                             : UTC 2021-03-05 14:31:11
Tagged date                              : UTC 2021-03-05 14:31:11

Text #14
ID                                       : 16
Format                                   : Timed Text
Codec ID                                 : tx3g
Duration                                 : 1 h 36 min
Bit rate mode                            : Variable
Bit rate                                 : 32 b/s
Stream size                              : 22.7 KiB (0%)
Title                                    : Dansk
Language                                 : Danish
Forced                                   : No
Encoded date                             : UTC 2021-03-05 14:31:11
Tagged date                              : UTC 2021-03-05 14:31:11




                                                                                                                                                                                                        
                                                                                                                                                                                                                                                                                                                                                                                                                                                                                                                                                                                                                                                                                                                                                                                                                                                        
864c2afefb24f0ff4c02a882777b3e74.zip (83.6 KB, 下载次数: 9)

回复

使用道具 举报

小黑屋|磁力链接吧 |网站地图

本网站所有资源来自网络,如无意中侵犯了您的权益,请发邮件至 [email protected],立即清除相关链接

GMT+8, 2021-4-20 08:40 , Processed in 0.115199 second(s), 22 queries .

Powered by Discuz! X3.2

© 2001-2013 Comsenz Inc.

快速回复 返回顶部 返回列表