磁力链接吧

 找回密码
 立即注册
搜索

[BD-4K] 蛛丝马迹/小东西 The.Little.Things.2021.REPACK.2160p.HMAX.WEB-DL.DDP5.1...

[复制链接]
百度云资源 发表于 2021-3-8 19:19:38 | 显示全部楼层 |阅读模式
-->
帖子完整标题:蛛丝马迹/小东西 The.Little.Things.2021.REPACK.2160p.HMAX.WEB-DL.DDP5.1.Atmos.DV.x265-FLUX 16.63GB


[/url]

◎译  名 蛛丝马迹/小东西/小事/小细节/细物警探(台)/蛛尸马迹(港)
◎片  名 The Little Things
◎年  代 2021
◎产  地 美国
◎类  别 剧情 / 惊悚 / 犯罪
◎语  言 英语
◎上映日期 2021-01-29(美国)
◎IMDb评分  6.3/10 from 43080 users
◎  
◎豆瓣评分 6.5/10 from 5010 users
◎ 
◎片  长 127分钟
◎导  演 约翰·李·汉考克 John Lee Hancock
◎编  剧 约翰·李·汉考克 John Lee Hancock
◎主  演 丹泽尔·华盛顿 Denzel Washington
       拉米·马雷克 Rami Malek
       杰瑞德·莱托 Jared Leto
       克里斯·鲍尔 Chris Bauer
       迈克尔·凯悦  Michael Hyatt
       特里·金尼 Terry Kinney
       娜塔丽·莫瑞丝 Natalie Morales
       伊莎贝尔·阿雷扎 Isabel Arraiza
       乔利斯·贾斯基 Joris Jarsky
       格伦·莫肖尔 Glenn Morshower
       苏菲亚·威希涅瓦 Sofia Vassilieva
       杰森·詹姆斯·里希特 Jason James Richter
       约翰·哈伦·金 John Harlan Kim
       弗雷德里克·凯勒 Frederick Koehler
       朱迪斯·斯科特 Judith Scott
       玛雅·卡赞 Maya Kazan
       奥利维亚·华盛顿 Olivia Washington
       基夫·范登·霍伊维尔 Kiff Vanden Heuvel
       J.唐宁 J. Downing
       托马斯·克劳福德 Thomas Crawford
       利纳拉·华盛顿 Linara Washington
       杰夫·科贝特 Jeff Corbett
       斯蒂芬妮·埃尔布 Stephanie Erb
       萨曼莎·科尔米耶 Samantha Cormier
       李·加林顿 Lee Garlington
       迪米特·D·马里诺夫 Dimiter D. Marinov
       朱莉娅·维拉 Julia Vera
       杰克·托帕利安 Jack Topalian
       查理·塞斯顿 Charlie Saxton
       埃姆利·贝赫什蒂 Emil Beheshti
       汉克·诺思罗普 Hank Northrop
       亚当·哈林顿 Adam Harrington
       凯莉·奥马利 Kerry O'Malley
       汤姆·休斯 Tom Hughes

◎标  签 犯罪 | 美国 | 悬疑 | 2021 | 惊悚 | 剧情 | 人性 | 破案

◎简  介

  克恩郡巡警乔狄肯,小名狄克(丹泽尔·华盛顿 饰),被派往洛杉矶进行本该是趟简单明快的证据收集任务。取而代之的是,他被卷入一场缉捕正肆虐该市的连环杀手之行动。领导缉捕的是洛杉矶郡警长吉姆贝克斯特(拉米·马雷克 饰),对狄克的警察直觉大为惊艳,因而私自寻求他的协助。
  
  但在两 人追踪主要嫌疑人艾伯特史帕玛(杰瑞德·莱托 饰)时,贝克斯特浑然不觉该调查勾起了狄克对过去不愉快的回忆,随之出土的黑暗秘密除了威胁案件调查外,可能牵连更剧。

◎获奖情况

  第78届金球奖 ?(2021)
  电影类最佳男配角(提名) 杰瑞德·莱托
  
  第27届美国演员工会奖 ?(2021)
  电影奖最佳男配角(提名) 杰瑞德·莱托
Video
ID                                       : 1
Format                                   : HEVC
Format/Info                              : High Efficiency Video Coding
Format profile                           : Main @Main
HDR format                               : Dolby Vision, Version 1.0, dvhe.05.06, BL+RPU
Codec ID                                 : dvhe
Codec ID/Info                            : High Efficiency Video Coding with Dolby Vision
Duration                                 : 2 h 7 min
Bit rate                                 : 17.9 Mb/s
Width                                    : 3 840 pixels
Height                                   : 2 160 pixels
Display aspect ratio                     : 16:9
Frame rate mode                          : Constant
Frame rate                               : 23.976 (24000/1001/189150) FPS
Color space                              : YUV
Chroma subsampling                       : 4:2:0
Bit depth                                : 10 bits
Bits/(Pixel*Frame)                       : 0.090
Stream size                              : 15.9 GiB (96%)
Writing library                          : x265 3.4hy:[Linux][GCC 7.5.0][64 bit] 10bit
Encoding settings                        : cpuid=1111039 / frame-threads=1 / wpp / no-pmode / no-pme / no-psnr / no-ssim / log-level=2 / input-csp=1 / input-res=3840x2160 / interlace=0 / total-frames=0 / level-idc=0 / high-tier=1 / uhd-bd=0 / ref=4 / no-allow-non-conformance / repeat-headers / annexb / aud / hrd / info / hash=0 / no-temporal-layers / no-open-gop / min-keyint=96 / keyint=96 / gop-lookahead=0 / bframes=4 / b-adapt=2 / b-pyramid / bframe-bias=0 / rc-lookahead=48 / lookahead-slices=4 / scenecut=40 / hist-scenecut=0 / radl=0 / no-splice / no-intra-refresh / ctu=64 / min-cu-size=8 / rect / no-amp / max-tu-size=32 / tu-inter-depth=1 / tu-intra-depth=1 / limit-tu=0 / rdoq-level=2 / dynamic-rd=0.00 / no-ssim-rd / signhide / no-tskip / nr-intra=0 / nr-inter=0 / no-constrained-intra / strong-intra-smoothing / max-merge=3 / limit-refs=3 / limit-modes / me=3 / subme=3 / merange=57 / temporal-mvp / no-frame-dup / no-hme / weightp / no-weightb / no-analyze-src-pics / deblock=0:0 / sao / no-sao-non-deblock / rd=4 / selective-sao=4 / no-early-skip / rskip / no-fast-intra / no-tskip-fast / no-cu-lossless / no-b-intra / no-splitrd-skip / rdpenalty=0 / psy-rd=2.00 / psy-rdoq=1.00 / no-rd-refine / no-lossless / cbqpoffs=0 / crqpoffs=3 / rc=abr / bitrate=18000 / qcomp=0.60 / qpstep=4 / stats-write=0 / stats-read=2 / cplxblur=20.0 / qblur=0.5 / vbv-maxrate=24500 / vbv-bufsize=24500 / vbv-init=0.6 / vbv-end=0.6 / vbv-end-fr-adj=0.0 / ipratio=1.40 / pbratio=1.30 / aq-mode=2 / aq-strength=1.00 / cutree / zone-count=0 / no-strict-cbr / qg-size=32 / no-rc-grain / qpmax=69 / qpmin=0 / no-const-vbv / sar=1 / overscan=0 / videoformat=5 / range=1 / colorprim=2 / transfer=2 / colormatrix=2 / chromaloc=0 / display-window=0 / cll=0,0 / min-luma=0 / max-luma=1023 / log2-max-poc-lsb=8 / vui-timing-info / vui-hrd-info / no-concatenation / slices=1 / no-opt-qp-pps / no-opt-ref-list-length-pps / no-multi-pass-opt-rps / scenecut-bias=0.05 / hist-threshold=0.01 / no-opt-cu-delta-qp / no-aq-motion / no-hdr10 / no-hdr10-opt / no-dhdr10-opt / no-idr-recovery-sei / analysis-reuse-level=0 / analysis-save-reuse-level=0 / analysis-load-reuse-level=0 / scale-factor=0 / refine-intra=0 / refine-inter=0 / refine-mv=1 / refine-ctu-distortion=0 / no-limit-sao / ctu-info=0 / no-lowpass-dct / refine-analysis-type=0 / copy-pic=1 / max-ausize-factor=1.0 / no-dynamic-refine / no-single-sei / no-hevc-aq / no-svt / no-field / qp-adaptation-range=1.00 / no-scenecut-aware-qpconformance-window-offsets / right=0 / bottom=0 / decoder-max-rate=0
Default                                  : Yes
Alternate group                          : 1
Encoded date                             : UTC 2021-03-04 18:28:55
Tagged date                              : UTC 2021-03-04 18:36:50
Color range                              : Full
Codec configuration box                  : hvcC+dvcC

Audio
ID                                       : 2
Format                                   : E-AC-3 JOC
Format/Info                              : Enhanced AC-3 with Joint Object Coding
Commercial name                          : Dolby Digital Plus with Dolby Atmos
Codec ID                                 : ec-3
Duration                                 : 2 h 7 min
Bit rate mode                            : Constant
Bit rate                                 : 768 kb/s
Maximum bit rate                         : 811 kb/s
Channel(s)                               : 6 channels
Channel layout                           : L R C LFE Ls Rs
Sampling rate                            : 48.0 kHz
Frame rate                               : 31.250 FPS (1536 SPF)
Compression mode                         : Lossy
Stream size                              : 702 MiB (4%)
Title                                    : English
Language                                 : English
Service kind                             : Complete Main
Encoded date                             : UTC 2021-03-04 18:36:17
Tagged date                              : UTC 2021-03-04 18:36:50
Complexity index                         : Not present / 16
Number of dynamic objects                : 15
Bed channel count                        : 1 channel
Bed channel configuration                : LFE

Text
ID                                       : 3
Format                                   : Timed Text
Codec ID                                 : tx3g
Duration                                 : 2 h 2 min
Bit rate mode                            : Variable
Bit rate                                 : 56 b/s
Stream size                              : 50.3 KiB (0%)
Title                                    : English
Language                                 : English
Forced                                   : No
Encoded date                             : UTC 2021-03-04 18:36:49
Tagged date                              : UTC 2021-03-04 18:36:50




                                                                                                                                                                                                        
                                                                                                                                                                                                                                                                                                                                                                                                                                                                                                                                                                                                                                                                                                                                                                                                                                                        
8619665f703a865c12ed28ddf7bd2ff6.zip (83.9 KB, 下载次数: 10)

回复

使用道具 举报

小黑屋|磁力链接吧 |网站地图

本网站所有资源来自网络,如无意中侵犯了您的权益,请发邮件至 [email protected],立即清除相关链接

GMT+8, 2021-4-19 20:06 , Processed in 0.106576 second(s), 22 queries .

Powered by Discuz! X3.2

© 2001-2013 Comsenz Inc.

快速回复 返回顶部 返回列表