磁力链接吧

 找回密码
 立即注册
搜索

[BD-4K] 赢家/豪赌人生 Win.It.All.2017.2160p.NF.WEB-DL.x265.10bit.SDR.DD5.1-PLAY...

[复制链接]
百度云资源 发表于 2021-3-8 19:19:38 | 显示全部楼层 |阅读模式
-->
帖子完整标题:赢家/豪赌人生 Win.It.All.2017.2160p.NF.WEB-DL.x265.10bit.SDR.DD5.1-PLAYREADY 10.18GB


[/url]

◎译  名 赢家/豪赌人生(台)
◎片  名 Win It All
◎年  代 2017
◎产  地 美国
◎类  别 喜剧
◎语  言 英语
◎上映日期 2017-03-11(西南偏南电影节) / 2017-04-07(美国)
◎IMDb评分  6.2/10 from 8285 users
◎  
◎豆瓣评分 5.6/10 from 493 users
◎ 
◎片  长 88分钟
◎导  演 乔·斯万博格 Joe Swanberg
◎编  剧 乔·斯万博格 Joe Swanberg / 杰克·约翰逊 Jake M. Johnson
◎主  演 杰克·约翰逊 Jake M. Johnson
       乔·洛·特鲁格里奥 Joe Lo Truglio
       克里斯·斯万博格 Kris Swanberg
       裘德·斯万博格 Jude Swanberg
       亚瑟·阿奇 Arthur Agee
       史蒂夫·伯格 Steve Berg
       克里夫·张伯伦 Cliff Chamberlain
       科甘-迈克尔·凯 Keegan-Michael Key
       阿斯琳·德尔贝 Aislinn Derbez
       蒂芙妮·伊冯娜·考克斯 Tiffany Yvonne Cox

◎标  签 美国 | 喜剧 | 剧情 | 2017 | 赌瘾 | Netflix | 人生 | 改变

◎简  介

  Netflix出品美国喜剧。乔·斯万博格导演,杰克·约翰逊、 科甘-迈克尔·凯主演,。赌徒艾迪·加勒特(约翰逊饰)为即将入狱的熟人看管行李袋。可当他发现包里的现金,他再次经不住诱惑,最终债台高筑。而面临熟人的刑期缩短,埃迪必须要把所有的钱赢回来
Video
ID                                       : 1
Format                                   : HEVC
Format/Info                              : High Efficiency Video Coding
Format profile                           : Main @Main
Codec ID                                 : V_MPEGH/ISO/HEVC
Duration                                 : 1 h 28 min
Bit rate                                 : 16.1 Mb/s
Width                                    : 3 840 pixels
Height                                   : 2 160 pixels
Display aspect ratio                     : 16:9
Frame rate mode                          : Constant
Frame rate                               : 23.976 (24000/1001/189150) FPS
Color space                              : YUV
Chroma subsampling                       : 4:2:0
Bit depth                                : 10 bits
Bits/(Pixel*Frame)                       : 0.081
Stream size                              : 9.94 GiB (98%)
Default                                  : Yes
Forced                                   : No
Color range                              : Limited
Color primaries                          : BT.709
Transfer characteristics                 : BT.709
Matrix coefficients                      : BT.709

Audio
ID                                       : 2
Format                                   : AC-3
Format/Info                              : Audio Coding 3
Commercial name                          : Dolby Digital
Codec ID                                 : A_AC3
Duration                                 : 1 h 28 min
Bit rate mode                            : Constant
Bit rate                                 : 384 kb/s
Channel(s)                               : 6 channels
Channel layout                           : L R C LFE Ls Rs
Sampling rate                            : 48.0 kHz
Frame rate                               : 31.250 FPS (1536 SPF)
Compression mode                         : Lossy
Stream size                              : 244 MiB (2%)
Language                                 : English
Service kind                             : Complete Main
Default                                  : Yes
Forced                                   : No
Encoded date                             : UTC 2017-03-10 07:02:47

Text #1
ID                                       : 3
Format                                   : UTF-8
Codec ID                                 : S_TEXT/UTF8
Codec ID/Info                            : UTF-8 Plain Text
Duration                                 : 1 h 27 min
Bit rate                                 : 101 b/s
Count of elements                        : 1872
Stream size                              : 65.4 KiB (0%)
Language                                 : English
Default                                  : No
Forced                                   : No

Text #2
ID                                       : 4
Format                                   : UTF-8
Codec ID                                 : S_TEXT/UTF8
Codec ID/Info                            : UTF-8 Plain Text
Duration                                 : 1 h 27 min
Bit rate                                 : 70 b/s
Count of elements                        : 1591
Stream size                              : 45.4 KiB (0%)
Title                                    : Spanish
Language                                 : Spanish
Default                                  : No
Forced                                   : No

Text #3
ID                                       : 5
Format                                   : UTF-8
Codec ID                                 : S_TEXT/UTF8
Codec ID/Info                            : UTF-8 Plain Text
Duration                                 : 1 h 27 min
Bit rate                                 : 77 b/s
Count of elements                        : 1588
Stream size                              : 49.6 KiB (0%)
Title                                    : French
Language                                 : French
Default                                  : No
Forced                                   : No

Text #4
ID                                       : 6
Format                                   : UTF-8
Codec ID                                 : S_TEXT/UTF8
Codec ID/Info                            : UTF-8 Plain Text
Duration                                 : 1 h 27 min
Bit rate                                 : 67 b/s
Count of elements                        : 1395
Stream size                              : 43.6 KiB (0%)
Title                                    : German
Language                                 : German
Default                                  : No
Forced                                   : No

Text #5
ID                                       : 7
Format                                   : UTF-8
Codec ID                                 : S_TEXT/UTF8
Codec ID/Info                            : UTF-8 Plain Text
Duration                                 : 1 h 27 min
Bit rate                                 : 68 b/s
Count of elements                        : 1626
Stream size                              : 44.1 KiB (0%)
Title                                    : Italian
Language                                 : Italian
Default                                  : No
Forced                                   : No




                                                                                                                                                                                                        
                                                                                                                                                                                                                                                                                                                                                                                                                                                                                                                                                                                                                                                                                                                                                                                                                                                        
4d204f5feaf22fb24e63dd41063cb4a1.zip (51.59 KB, 下载次数: 15)

回复

使用道具 举报

小黑屋|磁力链接吧 |网站地图

本网站所有资源来自网络,如无意中侵犯了您的权益,请发邮件至 [email protected],立即清除相关链接

GMT+8, 2021-4-20 09:56 , Processed in 0.100572 second(s), 22 queries .

Powered by Discuz! X3.2

© 2001-2013 Comsenz Inc.

快速回复 返回顶部 返回列表