磁力链接吧

 找回密码
 立即注册
搜索

[BD-4K] 犹大与黑弥赛亚 Judas.and.the.Black.Messiah.2021.REPACK.2160p.HMAX.WEB-...

[复制链接]
百度云资源 发表于 2021-3-8 19:19:38 | 显示全部楼层 |阅读模式
-->
帖子完整标题:犹大与黑弥赛亚 Judas.and.the.Black.Messiah.2021.REPACK.2160p.HMAX.WEB-DL.DDP5.1.Atmos.DV.x265-FLUX 16.33GB


[/url]

◎译  名 犹大与黑弥赛亚/Jesus Is My Homeboy/耶稣是我同伙/耶稣是我同伴/耶稣曾是我兄弟
◎片  名 Judas and the Black Messiah
◎年  代 2021
◎产  地 美国
◎类  别 剧情 / 传记 / 历史
◎语  言 英语
◎上映日期 2021-02-12(美国/美国网络)
◎IMDb评分  7.7/10 from 18132 users
◎  
◎豆瓣评分 7.2/10 from 763 users
◎ 
◎片  长 126分钟
◎导  演 沙卡·金 Shaka King
◎编  剧 威尔·伯森 Will Berson / 沙卡·金 Shaka King / 肯尼斯·卢卡斯 Kenneth Lucas / 基斯·卢卡斯 Keith Lucas
◎主  演 丹尼尔·卡卢亚 Daniel Kaluuya
       勒凯斯·斯坦菲尔德 Lakeith Stanfield
       杰西·普莱蒙 Jesse Plemons
       多米尼克·菲什巴克 Dominique Fishback
       艾什顿·桑德斯 Ashton Sanders
       阿尔吉·史密斯 Algee Smith
       达里尔·布里特-吉布森 Darrell Britt-Gibson
       里尔·莱尔·哈瓦瑞 Lil Rel Howery
       多米尼克·索恩 Dominique Thorne
       马丁·辛 Martin Sheen
       阿马里·切托姆 Amari Cheatom
       克里斯·戴维斯 Khris Davis
       伊恩·达夫 Ian Duff
       卡勒布·埃伯哈特 Caleb Eberhardt
       罗伯特·朗斯特里特 Robert Longstreet
       汤米·拉菲特 Tommy Lafitte
       特雷勒·希尔 Terayle Hill
       齐纳·萨维尔斯 China Shavers
       迈克尔·哈瑞蒂 Michael 'Mick' Harrity
       迈克尔·博诺莫 Michael Buonomo
       布莱恩·鲍曼 Brian Bowman
       杰梅因·福勒 Jermaine Fowler
       洛根·弗莱 Logan Fry
       泰拉·乔伊·史密斯 Tyra Joy Smith
       史蒂夫·里佐 Steve Rizzo
       亚伦·克莱伯 Aaron Kleiber
       小约翰·韦斯特 John West Jr.
       尼克·芬克 Nick Fink

◎标  签 美国 | 传记 | 历史 | 黑豹党 | 政治 | 2021 | 剧情 | 2020

◎简  介

  影片改编自真人真事。讲述了1960年代美国黑人社团黑豹党历史上的真实事件,故事聚焦于Hampton之死,他于1969年被杀,死于芝加哥警察局和FBI组织的一次突袭行动。警方开了80枪,而“黑豹党”成员一共只开了一枪,这一枪还是来自于一位成员被警方打死后的肌肉收缩。Hampton与怀孕的未婚妻正在睡觉时,头部被近距离射杀2枪,他当晚被下了药,根本没听见任何警方的动静,死后尸体被拖进小巷中,年仅21岁。经过审讯,他的死被判定为“正当杀人”,后来在1982年,以185万美元的赔偿数额,达到了民事诉讼的庭外和解。

◎获奖情况

  第78届金球奖 ?(2021)
  电影类最佳男配角 丹尼尔·卡卢亚
  电影类最佳原创歌曲(提名)
  
  第27届美国演员工会奖 ?(2021)
  电影奖最佳男配角(提名) 丹尼尔·卡卢亚
  
  第23届美国服装设计工会奖 ?(2021)
  年代电影最佳服装设计(提名) 查利斯·安托瓦内特·琼斯
  
  第92届美国国家评论协会奖 ?(2020)
  年度佳片
  
  第21届美国电影学会奖 ?(2020)
  年度佳片
Video
ID                                       : 1
Format                                   : HEVC
Format/Info                              : High Efficiency Video Coding
Format profile                           : Main @Main
HDR format                               : Dolby Vision, Version 1.0, dvhe.05.06, BL+RPU
Codec ID                                 : dvhe
Codec ID/Info                            : High Efficiency Video Coding with Dolby Vision
Duration                                 : 2 h 5 min
Bit rate                                 : 17.9 Mb/s
Width                                    : 3 840 pixels
Height                                   : 2 160 pixels
Display aspect ratio                     : 16:9
Frame rate mode                          : Constant
Frame rate                               : 23.976 (24000/1001/189150) FPS
Color space                              : YUV
Chroma subsampling                       : 4:2:0
Bit depth                                : 10 bits
Bits/(Pixel*Frame)                       : 0.090
Stream size                              : 15.7 GiB (96%)
Writing library                          : x265 3.4hy:[Linux][GCC 7.5.0][64 bit] 10bit
Encoding settings                        : cpuid=1111039 / frame-threads=1 / wpp / no-pmode / no-pme / no-psnr / no-ssim / log-level=2 / input-csp=1 / input-res=3840x2160 / interlace=0 / total-frames=0 / level-idc=0 / high-tier=1 / uhd-bd=0 / ref=4 / no-allow-non-conformance / repeat-headers / annexb / aud / hrd / info / hash=0 / no-temporal-layers / no-open-gop / min-keyint=96 / keyint=96 / gop-lookahead=0 / bframes=4 / b-adapt=2 / b-pyramid / bframe-bias=0 / rc-lookahead=48 / lookahead-slices=4 / scenecut=40 / hist-scenecut=0 / radl=0 / no-splice / no-intra-refresh / ctu=64 / min-cu-size=8 / rect / no-amp / max-tu-size=32 / tu-inter-depth=1 / tu-intra-depth=1 / limit-tu=0 / rdoq-level=2 / dynamic-rd=0.00 / no-ssim-rd / signhide / no-tskip / nr-intra=0 / nr-inter=0 / no-constrained-intra / strong-intra-smoothing / max-merge=3 / limit-refs=3 / limit-modes / me=3 / subme=3 / merange=57 / temporal-mvp / no-frame-dup / no-hme / weightp / no-weightb / no-analyze-src-pics / deblock=0:0 / sao / no-sao-non-deblock / rd=4 / selective-sao=4 / no-early-skip / rskip / no-fast-intra / no-tskip-fast / no-cu-lossless / no-b-intra / no-splitrd-skip / rdpenalty=0 / psy-rd=2.00 / psy-rdoq=1.00 / no-rd-refine / no-lossless / cbqpoffs=0 / crqpoffs=3 / rc=abr / bitrate=18000 / qcomp=0.60 / qpstep=4 / stats-write=0 / stats-read=2 / cplxblur=20.0 / qblur=0.5 / vbv-maxrate=24500 / vbv-bufsize=24500 / vbv-init=0.6 / vbv-end=0.6 / vbv-end-fr-adj=0.0 / ipratio=1.40 / pbratio=1.30 / aq-mode=2 / aq-strength=1.00 / cutree / zone-count=0 / no-strict-cbr / qg-size=32 / no-rc-grain / qpmax=69 / qpmin=0 / no-const-vbv / sar=1 / overscan=0 / videoformat=5 / range=1 / colorprim=2 / transfer=2 / colormatrix=2 / chromaloc=0 / display-window=0 / cll=0,0 / min-luma=0 / max-luma=1023 / log2-max-poc-lsb=8 / vui-timing-info / vui-hrd-info / no-concatenation / slices=1 / no-opt-qp-pps / no-opt-ref-list-length-pps / no-multi-pass-opt-rps / scenecut-bias=0.05 / hist-threshold=0.01 / no-opt-cu-delta-qp / no-aq-motion / no-hdr10 / no-hdr10-opt / no-dhdr10-opt / no-idr-recovery-sei / analysis-reuse-level=0 / analysis-save-reuse-level=0 / analysis-load-reuse-level=0 / scale-factor=0 / refine-intra=0 / refine-inter=0 / refine-mv=1 / refine-ctu-distortion=0 / no-limit-sao / ctu-info=0 / no-lowpass-dct / refine-analysis-type=0 / copy-pic=1 / max-ausize-factor=1.0 / no-dynamic-refine / no-single-sei / no-hevc-aq / no-svt / no-field / qp-adaptation-range=1.00 / no-scenecut-aware-qpconformance-window-offsets / right=0 / bottom=0 / decoder-max-rate=0
Default                                  : Yes
Alternate group                          : 1
Encoded date                             : UTC 2021-03-04 18:03:27
Tagged date                              : UTC 2021-03-04 18:16:20
Color range                              : Full
Codec configuration box                  : hvcC+dvcC

Audio
ID                                       : 2
Format                                   : E-AC-3 JOC
Format/Info                              : Enhanced AC-3 with Joint Object Coding
Commercial name                          : Dolby Digital Plus with Dolby Atmos
Codec ID                                 : ec-3
Duration                                 : 2 h 5 min
Bit rate mode                            : Constant
Bit rate                                 : 768 kb/s
Maximum bit rate                         : 811 kb/s
Channel(s)                               : 6 channels
Channel layout                           : L R C LFE Ls Rs
Sampling rate                            : 48.0 kHz
Frame rate                               : 31.250 FPS (1536 SPF)
Compression mode                         : Lossy
Stream size                              : 689 MiB (4%)
Title                                    : English
Language                                 : English
Service kind                             : Complete Main
Encoded date                             : UTC 2021-03-04 18:16:05
Tagged date                              : UTC 2021-03-04 18:16:20
Complexity index                         : Not present / 16
Number of dynamic objects                : 15
Bed channel count                        : 1 channel
Bed channel configuration                : LFE

Text
ID                                       : 3
Format                                   : Timed Text
Codec ID                                 : tx3g
Duration                                 : 2 h 4 min
Bit rate mode                            : Variable
Bit rate                                 : 83 b/s
Stream size                              : 75.2 KiB (0%)
Title                                    : English
Language                                 : English
Forced                                   : No
Encoded date                             : UTC 2021-03-04 18:16:20
Tagged date                              : UTC 2021-03-04 18:16:20




                                                                                                                                                                                                        
                                                                                                                                                                                                                                                                                                                                                                                                                                                                                                                                                                                                                                                                                                                                                                                                                                                        
72da8a824fd1055acc15b4c21464d5f6.zip (82.41 KB, 下载次数: 9)

回复

使用道具 举报

小黑屋|磁力链接吧 |网站地图

本网站所有资源来自网络,如无意中侵犯了您的权益,请发邮件至 [email protected],立即清除相关链接

GMT+8, 2021-4-19 20:19 , Processed in 0.091424 second(s), 22 queries .

Powered by Discuz! X3.2

© 2001-2013 Comsenz Inc.

快速回复 返回顶部 返回列表