磁力链接吧

 找回密码
 立即注册
搜索

[BD-4K] 看不见的女人 Invisible.Life.2019.PORTUGUESE.2160p.AMZN.WEB-DL.x265.10bi...

[复制链接]
百度云资源 发表于 2021-3-8 19:19:38 | 显示全部楼层 |阅读模式
-->
帖子完整标题:看不见的女人 Invisible.Life.2019.PORTUGUESE.2160p.AMZN.WEB-DL.x265.10bit.HDR10Plus.DDP5.1-iKA 15.17GB


[/url]

◎译  名 看不见的女人/Invisible Life/The Invisible Life of Euridice Gusm?o/Vida Invisivel/失散两生花(港)/她们的隐藏人生/爱在姊妹失散时(澳)/被遗忘的人生(台)/隐形的女人
◎片  名 A vida invisível de Eurídice Gusm?o
◎年  代 2019
◎产  地 巴西
◎类  别 剧情
◎语  言 葡萄牙语
◎上映日期 2019-05-20(戛纳电影节) / 2019-11-21(巴西)
◎IMDb评分  7.8/10 from 6337 users
◎  
◎豆瓣评分 7.8/10 from 6195 users
◎ 
◎片  长 145分钟
◎导  演 卡里姆·埃诺兹 Karim Ainouz
◎编  剧 穆里洛·豪瑟 Murilo Hauser / 伊妮丝·博尔塔加雷 Inés Bortagaray / 卡里姆·埃诺兹 Karim Ainouz / 玛莎·巴塔利亚 Martha Batalha
◎主  演 朱莉娅·斯托克勒 Julia Stockler
       卡罗尔·杜阿尔特 Carol Duarte
       弗拉维亚·古兹曼 Flávia Gusm?o
       安托尼欧·方塞卡 António Fonseca
       乌戈·克鲁兹 Hugo Cruz
       尼古拉斯·安东尼 Nikolas Antunes
       马丽亚·曼诺埃拉 Maria Manoella
       格莱郭廖· 杜威维埃 Gregório Duvivier
       塞缪尔·托莱多 Samuel Toledo
       卢安娜·泽维尔 Luana Xavier
       纳尔逊·费雷拉 Nelson Ferreira
       安德丽莎·卡布拉尔 Andressa Cabral
       卢米·金 Lumi Kim
       雪莉·克鲁兹 Shirley Cruz
       芭芭拉·桑托斯 Bárbara Santos
       马西奥·维托 Marcio Vito
       爱德华多·托纳吉 Eduardo Tornaghi
       伊萨克·达霍拉 Isack Dahora
       费尔南多·塞兰 Fernando Ceyl?o
       弗拉维奥·保乌拉奇 Flavio Bauraqui
       拉斐尔·拉波索 Rafael Raposo
       克劳迪奥·加布里埃尔 Cláudio Gabriel
       克里斯蒂娜·佩雷拉 Cristina Pereira
       费尔兰德·蒙特纳哥 Fernanda Montenegro

◎标  签 女性 | 巴西 | 剧情 | 2019 | 家庭 | 人生 | 亲情 | 成长

◎简  介

  故事发生在1950年巴西的里约热内卢,18岁的尤丽狄茜与20岁的吉达是一对形影不离的亲生姐妹,她们与保守的父母一同生活。虽然家风传统,姐妹俩却各自怀揣梦想:尤丽狄茜想做一名职业钢琴家,吉达渴望追寻真爱。在一次戏剧化的变故后,姐妹被迫分离,两人各自的梦想也因生活的无奈被搁置。即便如此,姐妹俩从未放弃找寻彼此的希望。

◎获奖情况

  第72届戛纳电影节 ?(2019)
  一种关注单元一种关注大奖 卡里姆·埃诺兹
  
  第91届美国国家评论协会奖 ?(2019)
  五佳外语片
  
  第35届美国独立精神奖 ?(2020)
  最佳国际电影(提名)
Video
ID                                       : 1
Format                                   : HEVC
Format/Info                              : High Efficiency Video Coding
Format profile                           : Main @Main
HDR format                               : SMPTE ST 2094 App 4, Version 1, HDR10+ Profile B compatible
Codec ID                                 : V_MPEGH/ISO/HEVC
Duration                                 : 2 h 19 min
Bit rate                                 : 14.9 Mb/s
Width                                    : 3 840 pixels
Height                                   : 1 600 pixels
Display aspect ratio                     : 2.40:1
Frame rate mode                          : Constant
Frame rate                               : 23.976 (24000/1001/189150) FPS
Color space                              : YUV
Chroma subsampling                       : 4:2:0
Bit depth                                : 10 bits
Bits/(Pixel*Frame)                       : 0.101
Stream size                              : 14.5 GiB (96%)
Default                                  : Yes
Forced                                   : No
Color range                              : Limited
Color primaries                          : BT.2020
Transfer characteristics                 : PQ
Matrix coefficients                      : BT.2020 non-constant
Mastering display color primaries        : Display P3
Mastering display luminance              : min: 0.0050 cd/m2, max: 4000 cd/m2
Maximum Content Light Level              : 350 cd/m2
Maximum Frame-Average Light Level        : 130 cd/m2

Audio
ID                                       : 2
Format                                   : E-AC-3
Format/Info                              : Enhanced AC-3
Commercial name                          : Dolby Digital Plus
Codec ID                                 : A_EAC3
Duration                                 : 2 h 19 min
Bit rate mode                            : Constant
Bit rate                                 : 640 kb/s
Channel(s)                               : 6 channels
Channel layout                           : L R C LFE Ls Rs
Sampling rate                            : 48.0 kHz
Frame rate                               : 31.250 FPS (1536 SPF)
Compression mode                         : Lossy
Stream size                              : 640 MiB (4%)
Title                                    : Brazilian Portuguese
Language                                 : Portuguese
Service kind                             : Complete Main
Default                                  : No
Forced                                   : No

Text #1
ID                                       : 3
Format                                   : UTF-8
Codec ID                                 : S_TEXT/UTF8
Codec ID/Info                            : UTF-8 Plain Text
Duration                                 : 2 h 18 min
Bit rate                                 : 43 b/s
Count of elements                        : 1665
Stream size                              : 44.0 KiB (0%)
Title                                    : English [SDH]
Language                                 : English
Default                                  : No
Forced                                   : No

Text #2
ID                                       : 4
Format                                   : UTF-8
Codec ID                                 : S_TEXT/UTF8
Codec ID/Info                            : UTF-8 Plain Text
Duration                                 : 2 h 11 min
Bit rate                                 : 39 b/s
Count of elements                        : 1322
Stream size                              : 38.6 KiB (0%)
Title                                    : English
Language                                 : English
Default                                  : No
Forced                                   : No

Menu
00:00:00.000                             : en:Amazon Logo
00:00:22.000                             : en:Studio Logo
00:00:59.000                             : en:Opening Credits
00:02:14.000                             : en:Eurídice and Guida are at beach
00:04:57.000                             : en:Title Sequence
00:05:35.000                             : en:Eurídice plays the piano
00:07:24.000                             : en:Guida talks about Iorgos
00:09:55.000                             : en:Mr. Feliciano visits
00:11:28.000                             : en:Guida dresses up
00:13:56.000                             : en:Guidagets out her house
00:14:55.000                             : en:Guida dances with Iorgos
00:16:58.000                             : en:Eurídice waits for Guida
00:18:44.000                             : en:A letter from Guida
00:20:54.000                             : en:Eurídice talks to Zélia
00:23:53.000                             : en:Eurídice enjoys her wedding
00:25:14.000                             : en:Eurídice is with Antenor
00:30:47.000                             : en:New life of Eurídice
00:32:22.000                             : en:Guida comes home
00:38:20.000                             : en:Manoel kicks out Guida
00:39:40.000                             : en:Antenor disturbs Eurídice
00:43:13.000                             : en:Guida gives a baby birth
00:46:23.000                             : en:Guida's work
00:53:09.000                             : en:Guida feeds a baby
00:55:38.000                             : en:Eurídice sees a doctor
00:58:25.000                             : en:Eurídice goes to Zélia
01:01:37.000                             : en:Antenor comes back to home
01:06:06.000                             : en:They miss each other
01:10:39.000                             : en:Guida wants to go to Vienna
01:14:35.000                             : en:Eurídice asks her mother
01:17:17.000                             : en:Eurídice looks for Guida
01:22:27.000                             : en:Chico meets Cecília
01:26:45.000                             : en:Guida have Christmas dinner with Filo
01:28:22.000                             : en:Eurídice's Christmas dinner
01:32:45.000                             : en:Filomena is sick
01:36:54.000                             : en:Guida needs a help
01:41:21.000                             : en:Filomena is in a couch
01:43:49.000                             : eniano audition
01:47:30.000                             : en:Eurídice wants to play the piano
01:52:09.000                             : en:Manoel tells a truth
01:55:59.000                             : en:Eurídice's behavior at night
02:00:26.000                             : en:Eurídice is at hospital
02:02:23.000                             : en:A funeral
02:05:34.000                             : en:Eurídice's family
02:09:17.000                             : en:Eurídice finds letters from Guida
02:11:36.000                             : en:Gisele talks about her grandma
02:14:47.000                             : en:End Credits




                                                                                                                                                                                                        
                                                                                                                                                                                                                                                                                                                                                                                                                                                                                                                                                                                                                                                                                                                                                                                                                                                        
ac63328853fa614fa120db9391e68fe4.zip (76.59 KB, 下载次数: 11)

回复

使用道具 举报

小黑屋|磁力链接吧 |网站地图

本网站所有资源来自网络,如无意中侵犯了您的权益,请发邮件至 [email protected],立即清除相关链接

GMT+8, 2021-4-16 11:15 , Processed in 0.133136 second(s), 22 queries .

Powered by Discuz! X3.2

© 2001-2013 Comsenz Inc.

快速回复 返回顶部 返回列表