磁力链接吧

 找回密码
 立即注册
搜索

走近蓝色海岸 Along.the.Coast.1958.720p.BluRay.x264-BiPOLAR 2.03GB

[复制链接]
百度云资源 发表于 2021-3-8 18:58:59 | 显示全部楼层 |阅读模式
-->
帖子完整标题:走近蓝色海岸 Along.the.Coast.1958.720p.BluRay.x264-BiPOLAR 2.03GB


[/url]

◎译  名 走近蓝色海岸
◎片  名 Du c?té de la c?te
◎年  代 1958
◎产  地 法国
◎类  别 纪录片 / 短片 / 历史
◎语  言 法语
◎上映日期 1958
◎IMDb评分  7.3/10 from 696 users
◎  
◎豆瓣评分 8.3/10 from 1041 users
◎ 
◎片  长 25 分钟(DVD version)
◎导  演 阿涅斯·瓦尔达 Agnès Varda
◎编  剧 阿涅斯·瓦尔达 Agnès Varda
◎主  演 罗热·科焦 Roger Coggio

◎标  签 法国 | 纪录片 | 短片 | 阿涅斯·瓦尔达 | AgnèsVarda | 1958 | 1950s | Agnès_Varda

◎简  介

  本片描绘了法国南部蓝色海岸天堂般的美景及其鲜为人知的另一面。天堂在哪里?有人说就在法国南部的蓝色海岸,那里总是有美丽的阳光、细软的沙滩和成群的游人,甚至英国女王、大画家毕加索都忍受不住这里美景的诱惑。在裸体主义者独占的岛屿上,马儿在海边悠然踱步,游人赤身裸体躺在沙滩上晒太阳。这一切似乎告诉人们:这里离天堂很近。然而影片告诉人们:这一切都是错觉,这里不属于当地人,那些不远万里赶来的游人也都是冒牌的亚当和夏娃,因为这个天堂是上着锁的。本片以一个左翼知识分子的视角详细描摹了法国土地上这块特殊的“飞地”,令人想起维果的《尼斯的景象》,这两部影片确实有异曲同工之妙,区别在于本片比较含蓄,《尼斯的景象》比较凌厉,本片导演阿涅斯·瓦尔达1928年生于比利时首都布鲁塞尔。1954年,她在没有受过任何电影教育的情况下拍摄的电影处女作《短岬村》震撼了法国影坛,成为新浪潮电影的先声作品,她本人也因此被尊为“新浪潮之母”。时至今日,她的艺术创造力依然不减,不断创作出新的富有震撼力的作品(如完成于2000年的纪录片《拾荒者》,参见单万里《DV时代的新浪潮之母--纪念阿涅斯·瓦尔达从影50周年》,载《当代电影》杂志2004年第3期)。
Video
ID                                       : 1
Format                                   : AVC
Format/Info                              : Advanced Video Codec
Format profile                           :
Format settings                          : CABAC / 12 Ref Frames
Format settings, CABAC                   : Yes
Format settings, Reference frames        : 12 frames
Codec ID                                 : V_MPEG4/ISO/AVC
Duration                                 : 27 min 40 s
Bit rate                                 : 10.3 Mb/s
Width                                    : 960 pixels
Height                                   : 720 pixels
Display aspect ratio                     : 4:3
Frame rate mode                          : Constant
Frame rate                               : 23.976 (24000/1001/189150) FPS
Color space                              : YUV
Chroma subsampling                       : 4:2:0
Bit depth                                : 8 bits
Scan type                                : Progressive
Bits/(Pixel*Frame)                       : 0.622
Stream size                              : 1.99 GiB (98%)
Writing library                          : x264 core 161 r3048 b86ae3c
Encoding settings                        : cabac=1 / ref=12 / deblock=1:-3:-3 / analyse=0x3:0x133 / me=umh / subme=10 / psy=1 / psy_rd=1.00:0.15 / mixed_ref=1 / me_range=24 / chroma_me=1 / trellis=2 / 8x8dct=1 / cqm=0 / deadzone=21,11 / fast_pskip=1 / chroma_qp_offset=-3 / threads=18 / lookahead_threads=3 / sliced_threads=0 / nr=0 / decimate=1 / interlaced=0 / bluray_compat=0 / constrained_intra=0 / bframes=8 / b_pyramid=2 / b_adapt=2 / b_bias=0 / direct=3 / weightb=1 / open_gop=0 / weightp=2 / keyint=250 / keyint_min=23 / scenecut=40 / intra_refresh=0 / rc_lookahead=60 / rc=crf / mbtree=1 / crf=19.0 / qcomp=0.60 / qpmin=0 / qpmax=69 / qpstep=4 / ip_ratio=1.40 / aq=3:0.50
Language                                 : English
Default                                  : Yes
Forced                                   : No

Audio
ID                                       : 2
Format                                   : AC-3
Format/Info                              : Audio Coding 3
Commercial name                          : Dolby Digital
Codec ID                                 : A_AC3
Duration                                 : 27 min 40 s
Bit rate mode                            : Constant
Bit rate                                 : 192 kb/s
Channel(s)                               : 1 channel
Channel layout                           : C
Sampling rate                            : 48.0 kHz
Frame rate                               : 31.250 FPS (1536 SPF)
Compression mode                         : Lossy
Stream size                              : 38.0 MiB (2%)
Language                                 : French
Service kind                             : Complete Main
Default                                  : Yes
Forced                                   : No

Text #1
ID                                       : 3
Format                                   : UTF-8
Codec ID                                 : S_TEXT/UTF8
Codec ID/Info                            : UTF-8 Plain Text
Duration                                 : 26 min 27 s
Bit rate                                 : 51 b/s
Count of elements                        : 248
Stream size                              : 10.0 KiB (0%)
Title                                    : English
Language                                 : English
Default                                  : Yes
Forced                                   : Yes

Text #2
ID                                       : 4
Format                                   : PGS
Muxing mode                              : zlib
Codec ID                                 : S_HDMV/PGS
Codec ID/Info                            : Picture based subtitle format used on BDs/HD-DVDs
Duration                                 : 26 min 27 s
Bit rate                                 : 11.7 kb/s
Count of elements                        : 496
Stream size                              : 2.21 MiB (0%)
Title                                    : English
Language                                 : English
Default                                  : No
Forced                                   : No

Menu
00:00:00.000                             : en:00:00:00.000
00:06:21.464                             : en:00:06:21.464
00:11:00.910                             : en:00:11:00.910
00:15:34.892                             : en:00:15:34.892
00:22:15.251                             : en:00:22:15.251
[/url]



                                                                                                                                                                                                        
                                                                                                                                                                                                                                                                                                                                                                                                                                                                                                                                                                                                                                                                                                                                                                                                                                                        
53694d51054ca3d872cb3d31c61d893d.zip (21.01 KB, 下载次数: 5)

回复

使用道具 举报

小黑屋|磁力链接吧 |网站地图

本网站所有资源来自网络,如无意中侵犯了您的权益,请发邮件至 [email protected],立即清除相关链接

GMT+8, 2021-4-16 07:42 , Processed in 0.177777 second(s), 22 queries .

Powered by Discuz! X3.2

© 2001-2013 Comsenz Inc.

快速回复 返回顶部 返回列表