磁力链接吧

 找回密码
 立即注册
搜索

动物园地铁站的青年 Rent.Boys.2011.SUBBED.720p.BluRay.x264-BiPOLAR 4....

[复制链接]
百度云资源 发表于 2021-3-8 18:58:59 | 显示全部楼层 |阅读模式
-->
帖子完整标题:动物园地铁站的青年 Rent.Boys.2011.SUBBED.720p.BluRay.x264-BiPOLAR 4.10GB


[/url]

◎译  名 动物园地铁站的青年
◎片  名 Die Jungs vom Bahnhof Zoo
◎年  代 2011
◎产  地 德国
◎类  别 纪录片
◎语  言 德语
◎上映日期 2011
◎IMDb评分  6.9/10 from 198 users
◎  
◎豆瓣评分 /10 from 0 users
◎ 
◎导  演 罗萨·冯·布劳恩海姆 Rosa von Praunheim
◎编  剧 罗萨·冯·布劳恩海姆 Rosa von Praunheim

◎标  签 德国 | 同志 | 纪录片 | 纪录 | 罗萨·冯·布劳恩海姆 | 德国|德语电影 | 德国电影 | zoostation

◎简  介

  暂无相关剧情介绍
Video
ID                                       : 1
Format                                   : AVC
Format/Info                              : Advanced Video Codec
Format profile                           :
Format settings                          : CABAC / 9 Ref Frames
Format settings, CABAC                   : Yes
Format settings, Reference frames        : 9 frames
Codec ID                                 : V_MPEG4/ISO/AVC
Duration                                 : 1 h 26 min
Bit rate                                 : 6 562 kb/s
Width                                    : 1 278 pixels
Height                                   : 720 pixels
Display aspect ratio                     : 16:9
Original display aspect ratio            : 16:9
Frame rate mode                          : Constant
Frame rate                               : 23.976 (24000/1001/189150) FPS
Color space                              : YUV
Chroma subsampling                       : 4:2:0
Bit depth                                : 8 bits
Scan type                                : Progressive
Bits/(Pixel*Frame)                       : 0.297
Stream size                              : 3.98 GiB (97%)
Writing library                          : x264 core 161 r3048 b86ae3c
Encoding settings                        : cabac=1 / ref=9 / deblock=1:-3:-3 / analyse=0x3:0x133 / me=umh / subme=10 / psy=1 / psy_rd=1.00:0.15 / mixed_ref=1 / me_range=24 / chroma_me=1 / trellis=2 / 8x8dct=1 / cqm=0 / deadzone=21,11 / fast_pskip=1 / chroma_qp_offset=-3 / threads=18 / lookahead_threads=3 / sliced_threads=0 / nr=0 / decimate=1 / interlaced=0 / bluray_compat=0 / constrained_intra=0 / bframes=8 / b_pyramid=2 / b_adapt=2 / b_bias=0 / direct=3 / weightb=1 / open_gop=0 / weightp=2 / keyint=250 / keyint_min=23 / scenecut=40 / intra_refresh=0 / rc_lookahead=60 / rc=crf / mbtree=1 / crf=17.0 / qcomp=0.60 / qpmin=0 / qpmax=69 / qpstep=4 / ip_ratio=1.40 / aq=3:0.60
Language                                 : English
Default                                  : Yes
Forced                                   : No
Color range                              : Limited
Matrix coefficients                      : BT.709

Audio
ID                                       : 2
Format                                   : AC-3
Format/Info                              : Audio Coding 3
Commercial name                          : Dolby Digital
Codec ID                                 : A_AC3
Duration                                 : 1 h 26 min
Bit rate mode                            : Constant
Bit rate                                 : 192 kb/s
Channel(s)                               : 2 channels
Channel layout                           : L R
Sampling rate                            : 48.0 kHz
Frame rate                               : 31.250 FPS (1536 SPF)
Compression mode                         : Lossy
Stream size                              : 119 MiB (3%)
Language                                 : German
Service kind                             : Complete Main
Default                                  : Yes
Forced                                   : No

Menu
00:00:00.000                             : en:00:00:00.000
00:08:45.525                             : en:00:08:45.525
00:17:31.050                             : en:00:17:31.050
00:26:16.575                             : en:00:26:16.575
00:35:02.100                             : en:00:35:02.100
00:43:47.625                             : en:00:43:47.625
00:52:33.150                             : en:00:52:33.150
01:01:18.675                             : en:01:01:18.675
01:10:04.200                             : en:01:10:04.200
01:18:49.725                             : en:01:18:49.725
[/url]



                                                                                                                                                                                                        
                                                                                                                                                                                                                                                                                                                                                                                                                                                                                                                                                                                                                                                                                                                                                                                                                                                        
ef1a0876ed72a679e921f9523ccda4aa.zip (41.72 KB, 下载次数: 3)

回复

使用道具 举报

小黑屋|磁力链接吧 |网站地图

本网站所有资源来自网络,如无意中侵犯了您的权益,请发邮件至 [email protected],立即清除相关链接

GMT+8, 2021-4-20 09:19 , Processed in 0.089246 second(s), 22 queries .

Powered by Discuz! X3.2

© 2001-2013 Comsenz Inc.

快速回复 返回顶部 返回列表