磁力链接吧

 找回密码
 立即注册
搜索

三颗纽扣 The.3.Buttons.2015.720p.BluRay.x264-BiPOLAR 354.88MB

[复制链接]
百度云资源 发表于 2021-3-8 18:58:59 | 显示全部楼层 |阅读模式
-->
帖子完整标题:三颗纽扣 The.3.Buttons.2015.720p.BluRay.x264-BiPOLAR 354.88MB


[/url]

◎译  名 三颗纽扣
◎片  名 Les 3 boutons
◎年  代 2015
◎产  地 法国
◎类  别 短片
◎语  言 法语
◎上映日期 2015-09-03(威尼斯电影节)
◎IMDb评分  6.2/10 from 296 users
◎  
◎豆瓣评分 7.2/10 from 879 users
◎ 
◎片  长 11分钟
◎导  演 阿涅斯·瓦尔达 Agnès Varda
◎编  剧 阿涅斯·瓦尔达 Agnès Varda

◎标  签 短片 | 法国 | 阿涅斯·瓦尔达 | AgnèsVarda | 2015 | 瓦尔达 | 法国电影 | 2010s

◎简  介

  Appropriately, her own 14th arrondissement (specifically Rue Daguerre) is a source of pleasure for the protagonist (Jasmine Thiré) and viewer, having been photographed carefully, beautifully, and lovingly. The first word that this all brought to mind way “playful,” and I’m pleased that my simple descriptor is something Varda would consider appropriate. Says her, “It’s playing a game with reality. The game is called cinema.”
Video
ID                                       : 1
Format                                   : AVC
Format/Info                              : Advanced Video Codec
Format profile                           :
Format settings                          : CABAC / 9 Ref Frames
Format settings, CABAC                   : Yes
Format settings, Reference frames        : 9 frames
Codec ID                                 : V_MPEG4/ISO/AVC
Duration                                 : 11 min 29 s
Bit rate                                 : 4 119 kb/s
Width                                    : 1 280 pixels
Height                                   : 656 pixels
Display aspect ratio                     : 1.951
Frame rate mode                          : Constant
Frame rate                               : 23.976 (24000/1001/189150) FPS
Color space                              : YUV
Chroma subsampling                       : 4:2:0
Bit depth                                : 8 bits
Scan type                                : Progressive
Bits/(Pixel*Frame)                       : 0.205
Stream size                              : 339 MiB (95%)
Writing library                          : x264 core 161 r3048 b86ae3c
Encoding settings                        : cabac=1 / ref=9 / deblock=1:-3:-3 / analyse=0x3:0x133 / me=umh / subme=10 / psy=1 / psy_rd=1.00:0.15 / mixed_ref=1 / me_range=24 / chroma_me=1 / trellis=2 / 8x8dct=1 / cqm=0 / deadzone=21,11 / fast_pskip=1 / chroma_qp_offset=-3 / threads=18 / lookahead_threads=3 / sliced_threads=0 / nr=0 / decimate=1 / interlaced=0 / bluray_compat=0 / constrained_intra=0 / bframes=8 / b_pyramid=2 / b_adapt=2 / b_bias=0 / direct=3 / weightb=1 / open_gop=0 / weightp=2 / keyint=250 / keyint_min=23 / scenecut=40 / intra_refresh=0 / rc_lookahead=60 / rc=crf / mbtree=1 / crf=17.0 / qcomp=0.60 / qpmin=0 / qpmax=69 / qpstep=4 / ip_ratio=1.40 / aq=3:0.90
Language                                 : English
Default                                  : Yes
Forced                                   : No

Audio
ID                                       : 2
Format                                   : AC-3
Format/Info                              : Audio Coding 3
Commercial name                          : Dolby Digital
Codec ID                                 : A_AC3
Duration                                 : 11 min 29 s
Bit rate mode                            : Constant
Bit rate                                 : 192 kb/s
Channel(s)                               : 2 channels
Channel layout                           : L R
Sampling rate                            : 48.0 kHz
Frame rate                               : 31.250 FPS (1536 SPF)
Compression mode                         : Lossy
Stream size                              : 15.8 MiB (4%)
Language                                 : French
Service kind                             : Complete Main
Default                                  : Yes
Forced                                   : No

Text #1
ID                                       : 3
Format                                   : UTF-8
Codec ID                                 : S_TEXT/UTF8
Codec ID/Info                            : UTF-8 Plain Text
Duration                                 : 9 min 26 s
Bit rate                                 : 18 b/s
Count of elements                        : 43
Stream size                              : 1.25 KiB (0%)
Title                                    : English
Language                                 : English
Default                                  : Yes
Forced                                   : Yes

Text #2
ID                                       : 4
Format                                   : PGS
Muxing mode                              : zlib
Codec ID                                 : S_HDMV/PGS
Codec ID/Info                            : Picture based subtitle format used on BDs/HD-DVDs
Duration                                 : 9 min 26 s
Bit rate                                 : 4 385 b/s
Count of elements                        : 86
Stream size                              : 303 KiB (0%)
Title                                    : English
Language                                 : English
Default                                  : No
Forced                                   : No
[/url]



                                                                                                                                                                                                        
                                                                                                                                                                                                                                                                                                                                                                                                                                                                                                                                                                                                                                                                                                                                                                                                                                                        
5bbdfcf198cfc8fbaf14e2ce8e2c4984.zip (7.61 KB, 下载次数: 6)

回复

使用道具 举报

小黑屋|磁力链接吧 |网站地图

本网站所有资源来自网络,如无意中侵犯了您的权益,请发邮件至 [email protected],立即清除相关链接

GMT+8, 2021-4-16 06:43 , Processed in 0.130138 second(s), 22 queries .

Powered by Discuz! X3.2

© 2001-2013 Comsenz Inc.

快速回复 返回顶部 返回列表