磁力链接吧

 找回密码
 立即注册
搜索

摄氏度/低温 Centigrade.2020.PROPER.1080p.BluRay.x264-PiGNUS 4.46GB

[复制链接]
百度云资源 发表于 2021-3-7 13:49:49 | 显示全部楼层 |阅读模式
-->
帖子完整标题:摄氏度/低温 Centigrade.2020.PROPER.1080p.BluRay.x264-PiGNUS 4.46GB


[/url]

◎译  名 摄氏度/低温/极寒求生
◎片  名 Centigrade
◎年  代 2020
◎产  地 美国
◎类  别 惊悚
◎语  言 英语
◎上映日期 2020-08-28(美国)
◎IMDb评分  4.3/10 from 1866 users
◎片  长 127分钟
◎导  演 布伦丹·沃尔什 Brendan Walsh
◎编  剧 布伦丹·沃尔什 Brendan Walsh
◎主  演 珍尼希斯·罗德里格兹 Genesis Rodriguez
       文森特·皮亚扎 Vincent Piazza

◎标  签 美国 | 2020 | 暴风雪 | 灾难 | 剧情 | 惊悚 | 超级烂片 | 美国电影

◎简  介

  一对年轻的美国夫妇去挪威的山区旅行。为避开暴风雪他们靠边停车后闭眼休息,当他们醒来时发现他们和车一起被埋在了冰雪之下。妻子已经怀孕八个月,恶劣的天气造成温度还在迅速下降,缺乏食物的他们必须一起努力对抗低温和绝望。
Video
ID                                       : 1
Format                                   : AVC
Format/Info                              : Advanced Video Codec
Format profile                           :
Format settings                          : CABAC / 5 Ref Frames
Format settings, CABAC                   : Yes
Format settings, Reference frames        : 5 frames
Codec ID                                 : V_MPEG4/ISO/AVC
Duration                                 : 1 h 29 min
Bit rate                                 : 4 898 kb/s
Width                                    : 1 920 pixels
Height                                   : 804 pixels
Display aspect ratio                     : 2.40:1
Frame rate mode                          : Constant
Frame rate                               : 23.976 (24000/1001/189150) FPS
Color space                              : YUV
Chroma subsampling                       : 4:2:0
Bit depth                                : 8 bits
Scan type                                : Progressive
Bits/(Pixel*Frame)                       : 0.132
Stream size                              : 3.05 GiB (68%)
Writing library                          : x264 core 161 r3048 b86ae3c
Encoding settings                        : cabac=1 / ref=5 / deblock=1:-3:-3 / analyse=0x3:0x133 / me=umh / subme=9 / psy=1 / psy_rd=1.00:0.00 / mixed_ref=1 / me_range=16 / chroma_me=1 / trellis=2 / 8x8dct=1 / cqm=0 / deadzone=21,11 / fast_pskip=1 / chroma_qp_offset=-2 / threads=25 / lookahead_threads=2 / sliced_threads=0 / nr=0 / decimate=1 / interlaced=0 / bluray_compat=0 / constrained_intra=0 / bframes=3 / b_pyramid=2 / b_adapt=2 / b_bias=0 / direct=3 / weightb=1 / open_gop=0 / weightp=2 / keyint=250 / keyint_min=23 / scenecut=40 / intra_refresh=0 / rc_lookahead=60 / rc=crf / mbtree=1 / crf=15.5 / qcomp=0.60 / qpmin=0 / qpmax=69 / qpstep=4 / ip_ratio=1.40 / aq=1:1.00
Default                                  : Yes
Forced                                   : No

Audio
ID                                       : 2
Format                                   : DTS XLL
Format/Info                              : Digital Theater Systems
Commercial name                          : DTS-HD Master Audio
Codec ID                                 : A_DTS
Duration                                 : 1 h 29 min
Bit rate mode                            : Variable
Bit rate                                 : 2 245 kb/s
Channel(s)                               : 6 channels
Channel layout                           : C L R Ls Rs LFE
Sampling rate                            : 48.0 kHz
Frame rate                               : 93.750 FPS (512 SPF)
Bit depth                                : 24 bits
Compression mode                         : Lossless
Stream size                              : 1.40 GiB (31%)
Language                                 : English
Default                                  : Yes
Forced                                   : No

Text #1
ID                                       : 3
Format                                   : PGS
Muxing mode                              : zlib
Codec ID                                 : S_HDMV/PGS
Codec ID/Info                            : Picture based subtitle format used on BDs/HD-DVDs
Duration                                 : 1 h 27 min
Bit rate                                 : 12.6 kb/s
Count of elements                        : 1077
Stream size                              : 7.89 MiB (0%)
Title                                    : English SDH
Language                                 : English
Default                                  : No
Forced                                   : No

Text #2
ID                                       : 4
Format                                   : PGS
Muxing mode                              : zlib
Codec ID                                 : S_HDMV/PGS
Codec ID/Info                            : Picture based subtitle format used on BDs/HD-DVDs
Duration                                 : 1 h 24 min
Bit rate                                 : 11.4 kb/s
Count of elements                        : 875
Stream size                              : 6.93 MiB (0%)
Title                                    : Spanish
Language                                 : Spanish
Default                                  : No
Forced                                   : No

Menu
00:00:00.000                             : en:Chapter 01
00:09:48.296                             : en:Chapter 02
00:19:37.760                             : en:Chapter 03
00:28:21.158                             : en:Chapter 04
00:34:39.202                             : en:Chapter 05
00:41:29.153                             : en:Chapter 06
00:51:36.635                             : en:Chapter 07
00:59:55.884                             : en:Chapter 08
01:08:14.882                             : en:Chapter 09
01:14:19.038                             : en:Chapter 10
01:19:05.658                             : en:Chapter 11
01:24:52.504                             : en:Chapter 12
01:29:09.344                             : en:Chapter 13
[/url]



                                                                                                                                                                                                        
                                                                                                                                                                                                                                                                                                                                                                                                                                                                                                                                                                                                                                                                                                                                                                                                                                                        
20ac690c80ded84e8b96e493ff8405fe.zip (45.34 KB, 下载次数: 1)

回复

使用道具 举报

小黑屋|磁力链接吧 |网站地图

本网站所有资源来自网络,如无意中侵犯了您的权益,请发邮件至 [email protected]look.com,立即清除相关链接

GMT+8, 2021-4-19 21:18 , Processed in 0.112087 second(s), 22 queries .

Powered by Discuz! X3.2

© 2001-2013 Comsenz Inc.

快速回复 返回顶部 返回列表