磁力链接吧

 找回密码
 立即注册
搜索

[4K-原盘] 亡命的老舅们 Monsieur.Gangster.1963.FRENCH.2160p.BluRay.REMUX.SDR.HEVC....

[复制链接]
百度云资源 发表于 2021-3-7 13:29:34 | 显示全部楼层 |阅读模式
-->
帖子完整标题:亡命的老舅们 Monsieur.Gangster.1963.FRENCH.2160p.BluRay.REMUX.SDR.HEVC.DTS-HD.MA.2.0-FGT 55.91GB


[/url]

◎译  名 亡命的老舅们
◎片  名 Les tontons flingueurs
◎年  代 1963
◎产  地 法国
◎类  别 喜剧 / 动作 / 犯罪
◎语  言 法语
◎上映日期 1963-10-04
◎IMDb评分  7.9/10 from 5344 users
◎  
◎豆瓣评分 7.3/10 from 152 users
◎ 
◎片  长 105分钟
◎导  演 乔治·洛特内 Georges Lautner
◎编  剧 米歇尔·奥迪亚 Michel Audiard / 乔治·洛特内 Georges Lautner / 阿尔贝·西莫南 Albert Simonin
◎主  演 利诺·文图拉 Lino Ventura
       贝尔纳·布里埃 Bernard Blier
       弗朗西斯·布朗什 Francis Blanche
       克洛德·里什 Claude Rich
       Mac Ronay
       查尔斯·雷尼尔 Charles Regnier
       韦朗第洛·维朗迪尼 Venantino Venantini
       保罗·梅塞 Paul Mercey
       Charles Lavialle
       让·勒费弗尔 Jean Lefebvre
       雅克·迪梅尼 Jacques Dumesnil
       多米妮克·达夫雷 Dominique Davray
       霍斯特·弗兰克 Horst Frank
       菲利普·卡斯泰利 Philippe Castelli
       保罗·默里斯 Paul Meurisse
       皮埃尔·贝尔坦 Pierre Bertin
       亨利科甘 Henri Cogan
       罗贝尔·达尔邦 Robert Dalban
       Sabine Sinjen

◎标  签 法国 | 喜剧 | 法国电影 | 黑色幽默 | 黑帮 | 犯罪 | 1960s | 1963

◎简  介

  60年代的法国黑帮片,一点也不暴力,倒是有点黑色幽默。几个主角都是名演员,随便哪个都是演过上百部电影!在那个时代,黑帮的打斗和火拼有点怪怪的。不是在路边埋伏就是到荒僻的房子里去搞无声手枪的枪战。打斗也有意思,就是拽过来,用拳头猛捶。根本不用刀子,也很少见血。不像现在这么血腥。
  
  情节是说一个前黑帮头目被马上要咽气的黑帮老大召唤来。被指定为新的头领,接管黑帮的生意还要负责照顾原来的老大的女儿。那时候的法国黑帮有点像意大利黑手党啊,新老大还要负责照顾遗孀或者孤儿寡女。当然里,原来的几个干将都不服气。这种黑帮的接班都是会有麻烦的。
  
  这个电影吸引人之处就是把火拼的故事加上了喜剧。似乎里面的每个人都不太在乎生死,倒是很在乎自己的面子和幽默感。那个前老大的女儿更是出格,完全是公主派头,住在漂亮的城堡里,光彩照人。而几乎所有的老大们都宠着她。这个扮演女儿的Claude现在还活跃在电影界,好像还是什么评委。那个时候真漂亮啊,站在楼梯上简简单单的一句话,一个眼神就能让人不由得生出怜爱。
Video
ID                                       : 1
ID in the original source medium         : 4113 (0x1011)
Format                                   : HEVC
Format/Info                              : High Efficiency Video Coding
Format profile                           : Main @High
Codec ID                                 : V_MPEGH/ISO/HEVC
Duration                                 : 1 h 51 min
Bit rate                                 : 67.0 Mb/s
Width                                    : 3 840 pixels
Height                                   : 2 160 pixels
Display aspect ratio                     : 16:9
Frame rate mode                          : Constant
Frame rate                               : 24.000 FPS
Color space                              : YUV
Chroma subsampling                       : 4:2:0
Bit depth                                : 10 bits
Bits/(Pixel*Frame)                       : 0.337
Stream size                              : 52.1 GiB (93%)
Writing library                          : ATEME Titan File 3.8.0 (4.8.0.0)        
Language                                 : English
Default                                  : No
Forced                                   : No
Color range                              : Limited
Color primaries                          : BT.709
Transfer characteristics                 : BT.709
Matrix coefficients                      : BT.709
Original source medium                   : Blu-ray

Audio #1
ID                                       : 2
ID in the original source medium         : 4352 (0x1100)
Format                                   : DTS XLL
Format/Info                              : Digital Theater Systems
Commercial name                          : DTS-HD Master Audio
Codec ID                                 : A_DTS
Duration                                 : 1 h 51 min
Bit rate mode                            : Variable
Bit rate                                 : 1 242 kb/s
Channel(s)                               : 2 channels
Channel layout                           : L R
Sampling rate                            : 48.0 kHz
Frame rate                               : 93.750 FPS (512 SPF)
Bit depth                                : 24 bits
Compression mode                         : Lossless
Stream size                              : 990 MiB (2%)
Title                                    : DTS-HD MA 2.0
Language                                 : French
Default                                  : Yes
Forced                                   : No
Original source medium                   : Blu-ray

Audio #2
ID                                       : 3
Format                                   : AC-3
Format/Info                              : Audio Coding 3
Commercial name                          : Dolby Digital
Codec ID                                 : A_AC3
Duration                                 : 1 h 51 min
Bit rate mode                            : Constant
Bit rate                                 : 640 kb/s
Channel(s)                               : 2 channels
Channel layout                           : L R
Sampling rate                            : 48.0 kHz
Frame rate                               : 31.250 FPS (1536 SPF)
Compression mode                         : Lossy
Stream size                              : 510 MiB (1%)
Title                                    : DD 2.0
Language                                 : French
Service kind                             : Complete Main
Default                                  : No
Forced                                   : No

Audio #3
ID                                       : 4
ID in the original source medium         : 4353 (0x1101)
Format                                   : DTS XLL
Format/Info                              : Digital Theater Systems
Commercial name                          : DTS-HD Master Audio
Codec ID                                 : A_DTS
Duration                                 : 1 h 51 min
Bit rate mode                            : Variable
Bit rate                                 : 1 423 kb/s
Channel(s)                               : 2 channels
Channel layout                           : L R
Sampling rate                            : 48.0 kHz
Frame rate                               : 93.750 FPS (512 SPF)
Bit depth                                : 24 bits
Compression mode                         : Lossless
Stream size                              : 1.11 GiB (2%)
Title                                    : DTS-HD MA 2.0
Language                                 : French
Default                                  : No
Forced                                   : No
Original source medium                   : Blu-ray

Audio #4
ID                                       : 5
ID in the original source medium         : 4354 (0x1102)
Format                                   : DTS XLL
Format/Info                              : Digital Theater Systems
Commercial name                          : DTS-HD Master Audio
Codec ID                                 : A_DTS
Duration                                 : 1 h 51 min
Bit rate mode                            : Variable
Bit rate                                 : 1 506 kb/s
Channel(s)                               : 2 channels
Channel layout                           : L R
Sampling rate                            : 48.0 kHz
Frame rate                               : 93.750 FPS (512 SPF)
Bit depth                                : 24 bits
Compression mode                         : Lossless
Stream size                              : 1.17 GiB (2%)
Title                                    : DTS-HD MA 2.0
Language                                 : French
Default                                  : No
Forced                                   : No
Original source medium                   : Blu-ray

Text #1
ID                                       : 6
Format                                   : UTF-8
Codec ID                                 : S_TEXT/UTF8
Codec ID/Info                            : UTF-8 Plain Text
Duration                                 : 1 h 50 min
Bit rate                                 : 47 b/s
Count of elements                        : 1287
Stream size                              : 38.2 KiB (0%)
Title                                    : English-SRT
Language                                 : English
Default                                  : Yes
Forced                                   : Yes

Text #2
ID                                       : 7
Format                                   : UTF-8
Codec ID                                 : S_TEXT/UTF8
Codec ID/Info                            : UTF-8 Plain Text
Duration                                 : 1 h 50 min
Bit rate                                 : 65 b/s
Count of elements                        : 1806
Stream size                              : 52.9 KiB (0%)
Title                                    : French-SRT
Language                                 : French
Default                                  : No
Forced                                   : No

Text #3
ID                                       : 8
ID in the original source medium         : 4608 (0x1200)
Format                                   : PGS
Muxing mode                              : zlib
Codec ID                                 : S_HDMV/PGS
Codec ID/Info                            : Picture based subtitle format used on BDs/HD-DVDs
Duration                                 : 1 h 50 min
Bit rate                                 : 35.7 kb/s
Count of elements                        : 3612
Stream size                              : 28.2 MiB (0%)
Title                                    : French-PGS
Language                                 : French
Default                                  : No
Forced                                   : No
Original source medium                   : Blu-ray

Text #4
ID                                       : 9
ID in the original source medium         : 4609 (0x1201)
Format                                   : PGS
Muxing mode                              : zlib
Codec ID                                 : S_HDMV/PGS
Codec ID/Info                            : Picture based subtitle format used on BDs/HD-DVDs
Duration                                 : 1 h 50 min
Bit rate                                 : 27.2 kb/s
Count of elements                        : 2576
Stream size                              : 21.5 MiB (0%)
Title                                    : English-PGS
Language                                 : English
Default                                  : No
Forced                                   : No
Original source medium                   : Blu-ray

Menu
00:00:00.000                             : fr:Chapitre 01
00:07:49.750                             : fr:Chapitre 02
00:16:18.541                             : fr:Chapitre 03
00:25:05.416                             : fr:Chapitre 04
00:32:51.666                             : fr:Chapitre 05
00:41:46.541                             : fr:Chapitre 06
00:47:19.791                             : fr:Chapitre 07
00:58:33.916                             : fr:Chapitre 08
01:10:44.833                             : fr:Chapitre 09
01:17:54.208                             : fr:Chapitre 10
01:27:01.291                             : fr:Chapitre 11
01:40:52.666                             : fr:Chapitre 12
[/url]



                                                                                                                                                                                                        
                                                                                                                                                                                                                                                                                                                                                                                                                                                                                                                                                                                                                                                                                                                                                                                                                                                        
92858211441599a192d72a0f259972bd.zip (140.52 KB, 下载次数: 11)

回复

使用道具 举报

小黑屋|磁力链接吧 |网站地图

本网站所有资源来自网络,如无意中侵犯了您的权益,请发邮件至 [email protected],立即清除相关链接

GMT+8, 2021-4-16 07:48 , Processed in 0.142774 second(s), 22 queries .

Powered by Discuz! X3.2

© 2001-2013 Comsenz Inc.

快速回复 返回顶部 返回列表