磁力链接吧

 找回密码
 立即注册
搜索

[BD-4K] 别担心他不会走远的/别急他不会走很远的 Dont.Worry.He.Wont.Ge...

[复制链接]
百度云资源 发表于 2021-3-7 12:58:32 | 显示全部楼层 |阅读模式
-->
帖子完整标题:别担心他不会走远的/别急他不会走很远的 Dont.Worry.He.Wont.Get.Far.on.Foot.2018.2160p.WEB-DL.x265.8bit.SDR.DTS-HD.MA.5.1-SWTYBLZ 15.02GB


[/url]

◎译  名 别担心,他不会走远的/别急,他不会走很远的/别急,他的脚走不了/笑画人生(台)/近人勿念/酒过漫画人生(港)
◎片  名 Don't Worry, He Won't Get Far on Foot
◎年  代 2018
◎产  地 法国,美国
◎类  别 剧情 / 传记
◎语  言 英语
◎上映日期 2018-01-19(圣丹斯电影节) / 2018-07-13(美国)
◎IMDb评分  6.9/10 from 22452 users
◎  
◎豆瓣评分 6.1/10 from 865 users
◎ 
◎片  长 114分钟
◎导  演 格斯·范·桑特 Gus Van Sant
◎编  剧 格斯·范·桑特 Gus Van Sant / 杰克·吉布森 Jack Gibson / 威廉·安德鲁·伊特曼 William Andrew Eatman / 约翰·卡拉汉 John Callahan
◎主  演 华金·菲尼克斯 Joaquin Phoenix
       鲁妮·玛拉 Rooney Mara
       乔纳·希尔 Jonah Hill
       杰克·布莱克 Jack Black
       贝丝·迪托 Beth Ditto
       奥莉维亚·汉密尔顿 Olivia Hamilton
       乌多·基尔 Udo Kier
       金·戈顿 Kim Gordon
       凯瑞·布朗斯汀 Carrie Brownstein
       埃米里奥·瑞弗拉 Emilio Rivera
       瑞贝卡·瑞滕豪斯 Rebecca Rittenhouse
       马克·韦伯 Mark Webber
       诺兰·格罗斯 Nolan Gross
       杰西卡·婕德·安德烈什 Jessica Andres
       桑尼·苏尔季克 Sunny Suljic
       周英华 Michael Chow
       Ethan Michael Mora
       Angelique Rivera

◎标  签 传记 | 美国 | 2018 | 剧情 | 文艺 | 柏林电影节 | 真人真事改编 | 独立电影

◎简  介

  格斯·范·桑特和杰昆·菲尼克斯时隔11年再度合作,欲将四肢瘫痪的漫画家约翰·卡拉汉(Joe Callahan)的故事搬上大银幕。卡拉汉12岁就嗜酒成性并滥用药物,21岁的在酒后遭遇车祸四肢瘫痪,之后他开始重建他的生活,最终成为了一位不断超越身体局限的漫画家。

◎获奖情况

  第68届柏林国际电影节 ?(2018)
  金熊奖最佳影片(提名) 格斯·范·桑特
  泰迪熊奖最佳电影(提名) 格斯·范·桑特
Video
ID                                       : 1
Format                                   : HEVC
Format/Info                              : High Efficiency Video Coding
Format profile                           : @Main
Codec ID                                 : V_MPEGH/ISO/HEVC
Duration                                 : 1 h 54 min
Bit rate                                 : 14.9 Mb/s
Width                                    : 3 840 pixels
Height                                   : 2 160 pixels
Display aspect ratio                     : 16:9
Frame rate mode                          : Constant
Frame rate                               : 23.976 (24000/1001/189150) FPS
Original frame rate                      : 23.976 (23976/1000/189150) FPS
Color space                              : YUV
Chroma subsampling                       : 4:2:0
Bit depth                                : 8 bits
Bits/(Pixel*Frame)                       : 0.075
Stream size                              : 11.9 GiB (79%)
Writing library                          : x265 3.0:[Linux][GCC 4.8.5][64 bit] 8bit
Encoding settings                        : cpuid=1111039 / frame-threads=6 / wpp / no-pmode / no-pme / no-psnr / no-ssim / log-level=2 / input-csp=1 / input-res=3840x2160 / interlace=0 / total-frames=0 / level-idc=0 / high-tier=1 / uhd-bd=0 / ref=3 / no-allow-non-conformance / no-repeat-headers / annexb / no-aud / no-hrd / info / hash=0 / no-temporal-layers / no-open-gop / min-keyint=4 / keyint=48 / gop-lookahead=0 / bframes=4 / b-adapt=2 / b-pyramid / bframe-bias=0 / rc-lookahead=80 / lookahead-slices=4 / scenecut=0 / radl=0 / no-splice / no-intra-refresh / ctu=64 / min-cu-size=8 / rect / no-amp / max-tu-size=32 / tu-inter-depth=1 / tu-intra-depth=1 / limit-tu=0 / rdoq-level=2 / dynamic-rd=0.00 / no-ssim-rd / signhide / no-tskip / nr-intra=0 / nr-inter=0 / no-constrained-intra / strong-intra-smoothing / max-merge=3 / limit-refs=3 / limit-modes / me=2 / subme=3 / merange=64 / temporal-mvp / weightp / no-weightb / no-analyze-src-pics / deblock=0:0 / no-sao / no-sao-non-deblock / rd=4 / no-early-skip / no-rskip / no-fast-intra / no-tskip-fast / no-cu-lossless / no-b-intra / no-splitrd-skip / rdpenalty=0 / psy-rd=4.00 / psy-rdoq=10.00 / no-rd-refine / no-lossless / cbqpoffs=0 / crqpoffs=0 / rc=abr / bitrate=15000 / qcomp=0.60 / qpstep=1 / stats-write=0 / stats-read=0 / vbv-maxrate=22500 / vbv-bufsize=22500 / vbv-init=0.9 / ipratio=1.10 / pbratio=1.00 / aq-mode=0 / aq-strength=0.00 / no-cutree / zone-count=0 / no-strict-cbr / qg-size=32 / rc-grain / qpmax=69 / qpmin=0 / const-vbv / sar=1 / overscan=0 / videoformat=5 / range=0 / colorprim=1 / transfer=1 / colormatrix=1 / chromaloc=0 / display-window=0 / max-cll=0,0 / min-luma=0 / max-luma=255 / log2-max-poc-lsb=8 / vui-timing-info / vui-hrd-info / slices=1 / no-opt-qp-pps / no-opt-ref-list-length-pps / no-multi-pass-opt-rps / scenecut-bias=0.05 / no-opt-cu-delta-qp / no-aq-motion / no-hdr / no-hdr-opt / no-dhdr10-opt / no-idr-recovery-sei / analysis-reuse-level=5 / scale-factor=0 / refine-intra=0 / refine-inter=0 / refine-mv=0 / refine-ctu-distortion=0 / no-limit-sao / ctu-info=0 / no-lowpass-dct / refine-analysis-type=0 / copy-pic=1 / max-ausize-factor=1.0 / no-dynamic-refine / no-single-sei / no-hevc-aq / qp-adaptation-range=1.00
Default                                  : Yes
Forced                                   : No
Color range                              : Limited
Color primaries                          : BT.709
Transfer characteristics                 : BT.709
Matrix coefficients                      : BT.709

Audio #1
ID                                       : 2
Format                                   : DTS XLL
Format/Info                              : Digital Theater Systems
Commercial name                          : DTS-HD Master Audio
Codec ID                                 : A_DTS
Duration                                 : 1 h 54 min
Bit rate mode                            : Variable
Bit rate                                 : 3 564 kb/s
Channel(s)                               : 6 channels
Channel layout                           : C L R Ls Rs LFE
Sampling rate                            : 48.0 kHz
Frame rate                               : 93.750 FPS (512 SPF)
Bit depth                                : 24 bits
Compression mode                         : Lossless
Stream size                              : 2.85 GiB (19%)
Title                                    : DTS-HD MA 5.1
Language                                 : English
Default                                  : Yes
Forced                                   : No

Audio #2
ID                                       : 3
Format                                   : E-AC-3
Format/Info                              : Enhanced AC-3
Commercial name                          : Dolby Digital Plus
Codec ID                                 : A_EAC3
Duration                                 : 1 h 54 min
Bit rate mode                            : Constant
Bit rate                                 : 256 kb/s
Channel(s)                               : 6 channels
Channel layout                           : L R C LFE Ls Rs
Sampling rate                            : 48.0 kHz
Frame rate                               : 31.250 FPS (1536 SPF)
Compression mode                         : Lossy
Stream size                              : 209 MiB (1%)
Title                                    : DDP 5.1
Language                                 : English
Service kind                             : Complete Main
Default                                  : No
Forced                                   : No

Text #1
ID                                       : 4
Format                                   : UTF-8
Codec ID                                 : S_TEXT/UTF8
Codec ID/Info                            : UTF-8 Plain Text
Duration                                 : 1 h 53 min
Bit rate                                 : 75 b/s
Count of elements                        : 2086
Stream size                              : 62.4 KiB (0%)
Language                                 : English
Default                                  : No
Forced                                   : No

Text #2
ID                                       : 5
Format                                   : PGS
Muxing mode                              : zlib
Codec ID                                 : S_HDMV/PGS
Codec ID/Info                            : Picture based subtitle format used on BDs/HD-DVDs
Duration                                 : 1 h 53 min
Bit rate                                 : 51.6 kb/s
Count of elements                        : 3892
Stream size                              : 41.7 MiB (0%)
Title                                    : English (SDH)
Language                                 : English
Default                                  : No
Forced                                   : No

Text #3
ID                                       : 6
Format                                   : PGS
Muxing mode                              : zlib
Codec ID                                 : S_HDMV/PGS
Codec ID/Info                            : Picture based subtitle format used on BDs/HD-DVDs
Duration                                 : 1 h 48 min
Bit rate                                 : 44.1 kb/s
Count of elements                        : 3466
Stream size                              : 34.2 MiB (0%)
Title                                    : Spanish (Latin American)
Language                                 : Spanish
Default                                  : No
Forced                                   : No

Menu
00:00:00.000                             : en:Chapter 01
00:07:49.761                             : en:Chapter 02
00:13:09.622                             : en:Chapter 03
00:21:26.076                             : en:Chapter 04
00:27:13.966                             : en:Chapter 05
00:35:06.479                             : en:Chapter 06
00:42:30.673                             : en:Chapter 07
00:48:53.556                             : en:Chapter 08
00:56:36.310                             : en:Chapter 09
01:02:30.497                             : en:Chapter 10
01:09:25.953                             : en:Chapter 11
01:17:00.282                             : en:Chapter 12
01:23:36.637                             : en:Chapter 13
01:31:06.544                             : en:Chapter 14
01:37:58.748                             : en:Chapter 15
01:46:20.833                             : en:Chapter 16
[/url][/url]



                                                                                                                                                                                                        
                                                                                                                                                                                                                                                                                                                                                                                                                                                                                                                                                                                                                                                                                                                                                                                                                                                        
4ccf59ef12ef810c9396a5904ffa35b3.zip (81.87 KB, 下载次数: 15)

回复

使用道具 举报

小黑屋|磁力链接吧 |网站地图

本网站所有资源来自网络,如无意中侵犯了您的权益,请发邮件至 [email protected],立即清除相关链接

GMT+8, 2021-4-16 09:27 , Processed in 0.133957 second(s), 22 queries .

Powered by Discuz! X3.2

© 2001-2013 Comsenz Inc.

快速回复 返回顶部 返回列表