磁力链接吧

 找回密码
 立即注册
搜索

[BD-4K] 过关斩将/威龙猛将 The.Running.Man.1987.2160p.WEB-DL.x265.8bit.SDR.DTS...

[复制链接]
百度云资源 发表于 2021-3-7 12:58:32 | 显示全部楼层 |阅读模式
-->
帖子完整标题:过关斩将/威龙猛将 The.Running.Man.1987.2160p.WEB-DL.x265.8bit.SDR.DTS-HD.MA.7.1-SWTYBLZ 14.77GB


[/url]

◎译  名 过关斩将/威龙猛将/跑步者/逃跑的人/魔鬼阿诺
◎片  名 The Running Man
◎年  代 1987
◎产  地 美国
◎类  别 动作 / 科幻 / 惊悚
◎语  言 英语
◎上映日期 1987-11-13
◎IMDb评分  6.7/10 from 141882 users
◎  
◎豆瓣评分 6.8/10 from 4649 users
◎ 
◎片  长 101 分钟
◎导  演 保罗·迈克尔·格拉泽 Paul Michael Glaser
◎编  剧 斯蒂芬·金 Stephen King / 斯蒂芬·E.德·索萨 Steven E. de Souza
◎主  演 阿诺·施瓦辛格 Arnold Schwarzenegger
       玛利亚·康柯塔·阿隆索 Maria Conchita Alonso
       杰西·温图拉 Jesse Ventura
       博伊德·肯斯特纳 Boyd Kestner
       史文-欧尔·托尔森 Sven-Ole Thorsen
       Anthony Pena
       戴·扬 Dey Young
       罗德格尔·邦帕斯 Rodger Bumpass
       琳恩·玛丽·斯图尔特 Lynne Marie Stewart
       小托马斯·罗萨莱斯 Thomas Rosales Jr.
       罗杰·科恩 Roger Kern
       爱德华·邦克 Edward Bunker
       梅利莎·赫利 Melissa Hurley
       弗兰科·哥伦布 Franco Columbu
       理查德·道森 Richard Dawson
       米克·弗利特伍德 Mick Fleetwood
       Professor Toru Tanaka
       Billy D. Lucas
       林·沙烨 Lin Shaye
       乔治·P·威尔伯 George P. Wilbur
       柯特·富勒 Kurt Fuller
       吉姆·布朗 Jim Brown
       Dweezil Zappa
       亚非特·科托 Yaphet Kotto
       Erland van Lidth
       Karen Leigh Hopkins

◎标  签 动作 | 美国 | 科幻 | 施瓦辛格 | 暴力 | 1987 | 阿诺德·施瓦辛格 | 美国电影

◎简  介

  该片延续了施瓦辛格一贯的英雄风格。在2019年,美国已经成为了一个独裁国家,在这里,不容许有不同的声音出现。本(阿诺?施瓦辛格 Arnold Schwarzenegger 饰)是一名警察,因对当局的命令不满,拒不执行命令而被判有罪遭到逮捕。
  
  现在只有一个机会能让本重获自由,那就是参加电视台的“过关斩将”节目并最终获胜。这个节目肆意歪曲事实,误导观众,节目里的有识之士被扭曲形象,遭到杀害。本千辛万苦从电视台逃出来后,联合了一班正义之士,准备杀回电视台拆穿这个节目的骗局!
Video
ID                                       : 1
Format                                   : HEVC
Format/Info                              : High Efficiency Video Coding
Format profile                           : @Main
Codec ID                                 : V_MPEGH/ISO/HEVC
Duration                                 : 1 h 40 min
Bit rate                                 : 14.9 Mb/s
Width                                    : 3 840 pixels
Height                                   : 2 160 pixels
Display aspect ratio                     : 16:9
Frame rate mode                          : Constant
Frame rate                               : 23.976 (24000/1001/189150) FPS
Color space                              : YUV
Chroma subsampling                       : 4:2:0
Bit depth                                : 8 bits
Bits/(Pixel*Frame)                       : 0.075
Stream size                              : 10.5 GiB (71%)
Writing library                          : x265 3.0:[Linux][GCC 4.8.5][64 bit] 8bit
Encoding settings                        : cpuid=1111039 / frame-threads=6 / wpp / no-pmode / no-pme / no-psnr / no-ssim / log-level=2 / input-csp=1 / input-res=3840x2160 / interlace=0 / total-frames=0 / level-idc=0 / high-tier=1 / uhd-bd=0 / ref=3 / no-allow-non-conformance / no-repeat-headers / annexb / no-aud / no-hrd / info / hash=0 / no-temporal-layers / no-open-gop / min-keyint=4 / keyint=48 / gop-lookahead=0 / bframes=4 / b-adapt=2 / b-pyramid / bframe-bias=0 / rc-lookahead=80 / lookahead-slices=4 / scenecut=0 / radl=0 / no-splice / no-intra-refresh / ctu=64 / min-cu-size=8 / rect / no-amp / max-tu-size=32 / tu-inter-depth=1 / tu-intra-depth=1 / limit-tu=0 / rdoq-level=2 / dynamic-rd=0.00 / no-ssim-rd / signhide / no-tskip / nr-intra=0 / nr-inter=0 / no-constrained-intra / strong-intra-smoothing / max-merge=3 / limit-refs=3 / limit-modes / me=2 / subme=3 / merange=64 / temporal-mvp / weightp / no-weightb / no-analyze-src-pics / deblock=0:0 / no-sao / no-sao-non-deblock / rd=4 / no-early-skip / no-rskip / no-fast-intra / no-tskip-fast / no-cu-lossless / no-b-intra / no-splitrd-skip / rdpenalty=0 / psy-rd=4.00 / psy-rdoq=10.00 / no-rd-refine / no-lossless / cbqpoffs=0 / crqpoffs=0 / rc=abr / bitrate=15000 / qcomp=0.60 / qpstep=1 / stats-write=0 / stats-read=0 / vbv-maxrate=22500 / vbv-bufsize=22500 / vbv-init=0.9 / ipratio=1.10 / pbratio=1.00 / aq-mode=0 / aq-strength=0.00 / no-cutree / zone-count=0 / no-strict-cbr / qg-size=32 / rc-grain / qpmax=69 / qpmin=0 / const-vbv / sar=1 / overscan=0 / videoformat=5 / range=0 / colorprim=1 / transfer=1 / colormatrix=1 / chromaloc=0 / display-window=0 / max-cll=0,0 / min-luma=0 / max-luma=255 / log2-max-poc-lsb=8 / vui-timing-info / vui-hrd-info / slices=1 / no-opt-qp-pps / no-opt-ref-list-length-pps / no-multi-pass-opt-rps / scenecut-bias=0.05 / no-opt-cu-delta-qp / no-aq-motion / no-hdr / no-hdr-opt / no-dhdr10-opt / no-idr-recovery-sei / analysis-reuse-level=5 / scale-factor=0 / refine-intra=0 / refine-inter=0 / refine-mv=0 / refine-ctu-distortion=0 / no-limit-sao / ctu-info=0 / no-lowpass-dct / refine-analysis-type=0 / copy-pic=1 / max-ausize-factor=1.0 / no-dynamic-refine / no-single-sei / no-hevc-aq / qp-adaptation-range=1.00
Language                                 : English
Default                                  : Yes
Forced                                   : No
Color range                              : Limited
Color primaries                          : BT.709
Transfer characteristics                 : BT.709
Matrix coefficients                      : BT.709

Audio #1
ID                                       : 2
Format                                   : DTS XLL
Format/Info                              : Digital Theater Systems
Commercial name                          : DTS-HD Master Audio
Codec ID                                 : A_DTS
Duration                                 : 1 h 40 min
Bit rate mode                            : Variable
Bit rate                                 : 5 427 kb/s
Channel(s)                               : 8 channels
Channel layout                           : C L R LFE Lb Rb Lss Rss
Sampling rate                            : 48.0 kHz
Frame rate                               : 93.750 FPS (512 SPF)
Bit depth                                : 24 bits
Compression mode                         : Lossless
Stream size                              : 3.82 GiB (26%)
Title                                    : DTS-HD MA 7.1
Language                                 : English
Default                                  : Yes
Forced                                   : No

Audio #2
ID                                       : 3
Format                                   : AC-3
Format/Info                              : Audio Coding 3
Commercial name                          : Dolby Digital
Codec ID                                 : A_AC3
Duration                                 : 1 h 40 min
Bit rate mode                            : Constant
Bit rate                                 : 640 kb/s
Channel(s)                               : 6 channels
Channel layout                           : L R C LFE Ls Rs
Sampling rate                            : 48.0 kHz
Frame rate                               : 31.250 FPS (1536 SPF)
Compression mode                         : Lossy
Stream size                              : 461 MiB (3%)
Title                                    : DDP 5.1
Language                                 : English
Service kind                             : Complete Main
Default                                  : No
Forced                                   : No

Text #1
ID                                       : 4
Format                                   : UTF-8
Codec ID                                 : S_TEXT/UTF8
Codec ID/Info                            : UTF-8 Plain Text
Duration                                 : 1 h 38 min
Bit rate                                 : 56 b/s
Count of elements                        : 1027
Stream size                              : 40.6 KiB (0%)
Title                                    : SRT
Language                                 : English
Default                                  : Yes
Forced                                   : No

Text #2
ID                                       : 5
Format                                   : PGS
Muxing mode                              : zlib
Codec ID                                 : S_HDMV/PGS
Codec ID/Info                            : Picture based subtitle format used on BDs/HD-DVDs
Duration                                 : 1 h 38 min
Bit rate                                 : 34.4 kb/s
Count of elements                        : 2054
Stream size                              : 24.2 MiB (0%)
Title                                    : English-PGS
Language                                 : English
Default                                  : No
Forced                                   : No

Text #3
ID                                       : 6
Format                                   : PGS
Muxing mode                              : zlib
Codec ID                                 : S_HDMV/PGS
Codec ID/Info                            : Picture based subtitle format used on BDs/HD-DVDs
Duration                                 : 1 h 38 min
Bit rate                                 : 37.5 kb/s
Count of elements                        : 2308
Stream size                              : 26.4 MiB (0%)
Title                                    : English-SDH-PGS
Language                                 : English
Default                                  : No
Forced                                   : No

Menu
00:00:00.000                             : en:Main Title/Year: 2017
00:03:22.077                             : enrison Riot
00:09:36.659                             : en:"He's Not One of Us"
00:14:32.038                             : en:Ruler of the Airwaves
00:16:37.205                             : en:Home Intrusion
00:21:57.858                             : en:The Perfect Candidate
00:24:32.513                             : en:A Little Trip
00:27:58.886                             : enreparing For the Game
00:34:07.212                             : en:Showtime!
00:39:19.816                             : en:The Guest Butcher
00:43:58.386                             : en:Welcome, Stalkers!
00:45:15.463                             : enive From the First Quad
00:49:27.882                             : en:Our Next Contestant
00:53:39.133                             : en:Tag Team
00:57:17.684                             : en:Buzz Saw
01:02:37.671                             : enynamo
01:05:09.989                             : en:Complications
01:09:18.696                             : en:Fireball
01:14:35.471                             : en:Revelations
01:18:05.931                             : en:Half-Truths
01:22:41.623                             : en:Counterprogramming
01:25:50.896                             : en:The Truth Revealed
01:29:40.166                             : en:Ratings Drop
01:34:29.539                             : en:Credits
[/url]



                                                                                                                                                                                                        
                                                                                                                                                                                                                                                                                                                                                                                                                                                                                                                                                                                                                                                                                                                                                                                                                                                        
7de8f398437da78166c5ac66747598ce.zip (74.58 KB, 下载次数: 9)

回复

使用道具 举报

小黑屋|磁力链接吧 |网站地图

本网站所有资源来自网络,如无意中侵犯了您的权益,请发邮件至 [email protected],立即清除相关链接

GMT+8, 2021-4-16 10:52 , Processed in 0.702674 second(s), 22 queries .

Powered by Discuz! X3.2

© 2001-2013 Comsenz Inc.

快速回复 返回顶部 返回列表