磁力链接吧

 找回密码
 立即注册
搜索

恶烂狂人 Psycho.Goreman.2020.720p.BluRay.x264.DTS-FGT 4.64GB

[复制链接]
百度云资源 发表于 2021-3-7 12:37:14 | 显示全部楼层 |阅读模式
-->
帖子完整标题:恶烂狂人 Psycho.Goreman.2020.720p.BluRay.x264.DTS-FGT 4.64GB


[/url]

◎译  名 恶烂狂人/PG: Psycho Goreman
◎片  名 Psycho Goreman
◎年  代 2020
◎产  地 加拿大 Canada
◎类  别 动作 / 科幻 / 恐怖
◎语  言 英语
◎上映日期 2020-03(西南偏南电影节)
◎IMDb评分  6.2/10 from 4193 users
◎  
◎豆瓣评分 5.2/10 from 436 users
◎ 
◎片  长 95分钟
◎导  演 史蒂文·科斯坦斯基 Steven Kostanski
◎编  剧 史蒂文·科斯坦斯基 Steven Kostanski
◎主  演 亚当·布鲁克斯 Adam Brooks
       斯科特·福林特 Scout Flint
       欧文·迈尔 Owen Myre

◎标  签 科幻 | 搞笑 | 恐怖 | 加拿大 | 2020 | 惊悚 | 动作 | 美国

◎简  介

  兄弟姐妹咪咪和卢克不知不觉中复活了一个古老的外星霸主。他们使用魔法护身符,迫使怪物服从幼稚的异想天开,并意外地将流氓银河系刺客画廊吸引到小镇郊区
Video
ID                                       : 1
Format                                   : AVC
Format/Info                              : Advanced Video Codec
Format profile                           :
Format settings                          : CABAC / 4 Ref Frames
Format settings, CABAC                   : Yes
Format settings, Reference frames        : 4 frames
Codec ID                                 : V_MPEG4/ISO/AVC
Duration                                 : 1 h 34 min
Bit rate                                 : 5 500 kb/s
Width                                    : 1 280 pixels
Height                                   : 536 pixels
Display aspect ratio                     : 2.40:1
Frame rate mode                          : Constant
Frame rate                               : 23.976 (24000/1001/189150) FPS
Color space                              : YUV
Chroma subsampling                       : 4:2:0
Bit depth                                : 8 bits
Scan type                                : Progressive
Bits/(Pixel*Frame)                       : 0.334
Stream size                              : 3.64 GiB (78%)
Writing library                          : x264 core 148 r2795M aaa9aa8
Encoding settings                        : cabac=1 / ref=4 / deblock=1:-2:-2 / analyse=0x3:0x113 / me=umh / subme=9 / psy=1 / psy_rd=1.00:0.15 / mixed_ref=1 / me_range=16 / chroma_me=1 / trellis=2 / 8x8dct=1 / cqm=0 / deadzone=21,11 / fast_pskip=1 / chroma_qp_offset=-3 / threads=24 / lookahead_threads=3 / sliced_threads=0 / nr=0 / decimate=1 / interlaced=0 / bluray_compat=0 / constrained_intra=0 / bframes=3 / b_pyramid=2 / b_adapt=1 / b_bias=0 / direct=3 / weightb=1 / open_gop=0 / weightp=2 / keyint=250 / keyint_min=25 / scenecut=40 / intra_refresh=0 / rc_lookahead=50 / rc=2pass / mbtree=1 / bitrate=5500 / ratetol=1.0 / qcomp=0.60 / qpmin=0 / qpmax=69 / qpstep=4 / cplxblur=20.0 / qblur=0.5 / vbv_maxrate=31250 / vbv_bufsize=31250 / nal_hrd=none / filler=0 / ip_ratio=1.40 / aq=1:1.00
Language                                 : English
Default                                  : Yes
Forced                                   : No

Audio
ID                                       : 2
Format                                   : DTS
Format/Info                              : Digital Theater Systems
Codec ID                                 : A_DTS
Duration                                 : 1 h 34 min
Bit rate mode                            : Constant
Bit rate                                 : 1 509 kb/s
Channel(s)                               : 6 channels
Channel layout                           : C L R Ls Rs LFE
Sampling rate                            : 48.0 kHz
Frame rate                               : 93.750 FPS (512 SPF)
Bit depth                                : 24 bits
Compression mode                         : Lossy
Stream size                              : 1 023 MiB (22%)
Title                                    : DTS 5.1
Language                                 : English
Default                                  : Yes
Forced                                   : No

Text #1
ID                                       : 3
Format                                   : UTF-8
Codec ID                                 : S_TEXT/UTF8
Codec ID/Info                            : UTF-8 Plain Text
Duration                                 : 1 h 34 min
Bit rate                                 : 58 b/s
Count of elements                        : 1377
Stream size                              : 40.4 KiB (0%)
Title                                    : English-SRT
Language                                 : English
Default                                  : Yes
Forced                                   : No

Text #2
ID                                       : 4
Format                                   : UTF-8
Codec ID                                 : S_TEXT/UTF8
Codec ID/Info                            : UTF-8 Plain Text
Duration                                 : 1 h 34 min
Bit rate                                 : 61 b/s
Count of elements                        : 1481
Stream size                              : 42.1 KiB (0%)
Title                                    : English-SDH-SRT
Language                                 : English
Default                                  : No
Forced                                   : No

Text #3
ID                                       : 5
Format                                   : UTF-8
Codec ID                                 : S_TEXT/UTF8
Codec ID/Info                            : UTF-8 Plain Text
Duration                                 : 1 h 34 min
Bit rate                                 : 63 b/s
Count of elements                        : 1427
Stream size                              : 43.6 KiB (0%)
Title                                    : Spanish-SRT
Language                                 : Spanish
Default                                  : No
Forced                                   : No

Menu
00:00:00.000                             : enrologue / Buried Alive
00:09:13.970                             : en:A Really Big Hole
00:18:01.038                             : enG for Short
00:27:05.832                             : en:Born on Gigax
00:35:58.239                             : en:I\'m the Heckin\' Best
00:44:06.810                             : en:Another Contestant
00:52:04.579                             : enaladins Arrive
01:01:03.326                             : enarental Help
01:10:02.156                             : enandora\'s Aide
01:17:34.358                             : en:Contest
01:24:53.797                             : en:Age of Chaos
01:31:48.503                             : en:End Credits
[/url][/url][/url]



                                                                                                                                                                                                        
                                                                                                                                                                                                                                                                                                                                                                                                                                                                                                                                                                                                                                                                                                                                                                                                                                                        
169c6cccb5b331d73b925393eac61095.zip (47.03 KB, 下载次数: 16)

回复

使用道具 举报

小黑屋|磁力链接吧 |网站地图

本网站所有资源来自网络,如无意中侵犯了您的权益,请发邮件至 [email protected],立即清除相关链接

GMT+8, 2021-4-16 09:44 , Processed in 0.123823 second(s), 22 queries .

Powered by Discuz! X3.2

© 2001-2013 Comsenz Inc.

快速回复 返回顶部 返回列表