磁力链接吧

 找回密码
 立即注册
搜索

世界和平 Peace.on.Earth.1939.720p.BluRay.x264-BiPOLAR 688.46MB

[复制链接]
百度云资源 发表于 2021-3-7 12:37:14 | 显示全部楼层 |阅读模式
-->
帖子完整标题:世界和平 Peace.on.Earth.1939.720p.BluRay.x264-BiPOLAR 688.46MB


[/url]

◎译  名 世界和平
◎片  名 Peace on Earth
◎年  代 1939
◎产  地 美国
◎类  别 剧情 / 动画 / 短片 / 战争
◎语  言 英语
◎上映日期 1939-12-09(美国)
◎IMDb评分  7.4/10 from 1339 users
◎  
◎豆瓣评分 /10 from 0 users
◎ 
◎片  长 9分钟
◎导  演 休·哈曼 Hugh Harman
◎主  演 梅尔·布兰科 Mel Blanc

◎标  签 美国 | 动画短片 | 短片 | 动画 | 1939 | 美国电影 | 战争 | animation

◎简  介

  A baby squirrel asks his grandfather to tell him what happened to all the men. The old squirrel reveals that all the humans were killed years ago in a terrible war. The surviving animals started a new society, based on the lessons taught in the Bible.

◎获奖情况

  第12届奥斯卡金像奖 ?(1940)
  最佳动画短片(提名)
Video
ID                                       : 1
Format                                   : AVC
Format/Info                              : Advanced Video Codec
Format profile                           :
Format settings                          : CABAC / 11 Ref Frames
Format settings, CABAC                   : Yes
Format settings, Reference frames        : 11 frames
Codec ID                                 : V_MPEG4/ISO/AVC
Duration                                 : 8 min 49 s
Bit rate                                 : 10.2 Mb/s
Width                                    : 982 pixels
Height                                   : 720 pixels
Display aspect ratio                     : 4:3
Frame rate mode                          : Constant
Frame rate                               : 23.976 (24000/1001/189150) FPS
Color space                              : YUV
Chroma subsampling                       : 4:2:0
Bit depth                                : 8 bits
Scan type                                : Progressive
Bits/(Pixel*Frame)                       : 0.599
Stream size                              : 642 MiB (93%)
Writing library                          : x264 core 161 r3048 b86ae3c
Encoding settings                        : cabac=1 / ref=11 / deblock=1:1:1 / analyse=0x3:0x133 / me=umh / subme=10 / psy=1 / psy_rd=0.40:0.00 / mixed_ref=1 / me_range=24 / chroma_me=1 / trellis=2 / 8x8dct=1 / cqm=0 / deadzone=21,11 / fast_pskip=1 / chroma_qp_offset=-2 / threads=18 / lookahead_threads=4 / sliced_threads=0 / nr=0 / decimate=1 / interlaced=0 / bluray_compat=0 / constrained_intra=0 / bframes=10 / b_pyramid=2 / b_adapt=2 / b_bias=0 / direct=3 / weightb=1 / open_gop=0 / weightp=2 / keyint=250 / keyint_min=23 / scenecut=40 / intra_refresh=0 / rc_lookahead=60 / rc=crf / mbtree=1 / crf=17.0 / qcomp=0.60 / qpmin=0 / qpmax=69 / qpstep=4 / ip_ratio=1.40 / aq=3:0.50
Language                                 : English
Default                                  : Yes
Forced                                   : No

Audio
ID                                       : 2
Format                                   : FLAC
Format/Info                              : Free Lossless Audio Codec
Codec ID                                 : A_FLAC
Duration                                 : 8 min 49 s
Bit rate mode                            : Variable
Bit rate                                 : 736 kb/s
Channel(s)                               : 2 channels
Channel layout                           : L R
Sampling rate                            : 48.0 kHz
Frame rate                               : 11.719 FPS (4096 SPF)
Bit depth                                : 24 bits
Compression mode                         : Lossless
Stream size                              : 46.5 MiB (7%)
Writing library                          : libFLAC 1.2.1 (UTC 2007-09-17)
Language                                 : English
Default                                  : Yes
Forced                                   : No
[/url]



                                                                                                                                                                                                        
                                                                                                                                                                                                                                                                                                                                                                                                                                                                                                                                                                                                                                                                                                                                                                                                                                                        
633f625db26457edc7f5dad63271c167.zip (14.13 KB, 下载次数: 7)

回复

使用道具 举报

小黑屋|磁力链接吧 |网站地图

本网站所有资源来自网络,如无意中侵犯了您的权益,请发邮件至 [email protected],立即清除相关链接

GMT+8, 2021-4-16 08:22 , Processed in 0.121321 second(s), 22 queries .

Powered by Discuz! X3.2

© 2001-2013 Comsenz Inc.

快速回复 返回顶部 返回列表