磁力链接吧

 找回密码
 立即注册
搜索

夜间来客 Strangers.in.the.Night.1944.720p.BluRay.x264-BiPOLAR 3.44GB

[复制链接]
百度云资源 发表于 2021-3-7 12:37:14 | 显示全部楼层 |阅读模式
-->
帖子完整标题:夜间来客 Strangers.in.the.Night.1944.720p.BluRay.x264-BiPOLAR 3.44GB


[/url]

◎译  名 夜间来客
◎片  名 Strangers in the Night
◎年  代 1944
◎产  地 美国
◎类  别 剧情 / 犯罪 / 黑色电影
◎语  言 英语
◎上映日期 1944-09-12
◎IMDb评分  6.4/10 from 510 users
◎  
◎豆瓣评分 6.0/10 from 76 users
◎ 
◎片  长 56 分钟
◎导  演 安东尼·曼 Anthony Mann
◎编  剧 菲利普·麦克唐纳 Philip MacDonald / 保罗·甘格林 Paul Gangelin
◎主  演 弗吉尼亚·格雷 Virginia Grey
       威廉·特里 William Terry
       伊迪丝·巴雷特 Edith Barrett
       George Sherwood
       查尔斯·沙利文 Charles Sullivan
       Helen Thimig
       Anne O'Neal
       Frances Morris
       Jimmie Lucas
       Jack Gardner
       罗伊·巴特勒 Roy Butler
       Audley Anderson
       琳达·斯特灵 Linda Stirling

◎标  签 美国 | 安东尼·曼 | 黑色电影 | 1940s | 1944 | 悬疑 | Anthony_Mann | AnthonyMann

◎简  介

  Description: A lonely, mentally unbalanced woman invents a fictitious daughter and has the "daughter" write to a Marine stationed in the South Pacific. When the soldier returns back to the States, he goes to look up his pen pal, and is told by the "mother" that the daughter has moved away. An acquaintance of the women tells the soldier the truth, and in a rage the "mother" kills her. In order to cover up that crime, she realizes she must kill the soldier, too. (IMDb)
Video
ID                                       : 1
Format                                   : AVC
Format/Info                              : Advanced Video Codec
Format profile                           :
Format settings                          : CABAC / 11 Ref Frames
Format settings, CABAC                   : Yes
Format settings, Reference frames        : 11 frames
Codec ID                                 : V_MPEG4/ISO/AVC
Duration                                 : 56 min 7 s
Bit rate                                 : 8 579 kb/s
Width                                    : 986 pixels
Height                                   : 720 pixels
Display aspect ratio                     : 4:3
Frame rate mode                          : Constant
Frame rate                               : 23.976 (24000/1001/189150) FPS
Color space                              : YUV
Chroma subsampling                       : 4:2:0
Bit depth                                : 8 bits
Scan type                                : Progressive
Bits/(Pixel*Frame)                       : 0.504
Stream size                              : 3.36 GiB (98%)
Writing library                          : x264 core 161 r3048 b86ae3c
Encoding settings                        : cabac=1 / ref=11 / deblock=1:-3:-3 / analyse=0x3:0x133 / me=umh / subme=10 / psy=1 / psy_rd=1.00:0.15 / mixed_ref=1 / me_range=24 / chroma_me=1 / trellis=2 / 8x8dct=1 / cqm=0 / deadzone=21,11 / fast_pskip=1 / chroma_qp_offset=-3 / threads=18 / lookahead_threads=3 / sliced_threads=0 / nr=0 / decimate=1 / interlaced=0 / bluray_compat=0 / constrained_intra=0 / bframes=8 / b_pyramid=2 / b_adapt=2 / b_bias=0 / direct=3 / weightb=1 / open_gop=0 / weightp=2 / keyint=250 / keyint_min=23 / scenecut=40 / intra_refresh=0 / rc_lookahead=60 / rc=crf / mbtree=1 / crf=17.0 / qcomp=0.60 / qpmin=0 / qpmax=69 / qpstep=4 / ip_ratio=1.40 / aq=3:0.50
Language                                 : English
Default                                  : Yes
Forced                                   : No
Color range                              : Limited
Matrix coefficients                      : BT.709

Audio
ID                                       : 2
Format                                   : FLAC
Format/Info                              : Free Lossless Audio Codec
Codec ID                                 : A_FLAC
Duration                                 : 56 min 8 s
Bit rate mode                            : Variable
Bit rate                                 : 190 kb/s
Channel(s)                               : 1 channel
Channel layout                           : C
Sampling rate                            : 48.0 kHz
Frame rate                               : 11.719 FPS (4096 SPF)
Bit depth                                : 16 bits
Compression mode                         : Lossless
Stream size                              : 76.5 MiB (2%)
Writing library                          : libFLAC 1.2.1 (UTC 2007-09-17)
Language                                 : English
Default                                  : Yes
Forced                                   : No

Menu
00:00:00.000                             : en:00:00:00.000
00:08:10.281                             : en:00:08:10.281
00:13:43.406                             : en:00:13:43.406
00:15:53.578                             : en:00:15:53.578
00:22:10.079                             : en:00:22:10.079
00:31:42.526                             : en:00:31:42.526
00:37:08.852                             : en:00:37:08.852
00:50:16.347                             : en:00:50:16.347
[/url]



                                                                                                                                                                                                        
                                                                                                                                                                                                                                                                                                                                                                                                                                                                                                                                                                                                                                                                                                                                                                                                                                                        
d19e37ad2af588d77398084202b12ec9.zip (35.11 KB, 下载次数: 11)

回复

使用道具 举报

小黑屋|磁力链接吧 |网站地图

本网站所有资源来自网络,如无意中侵犯了您的权益,请发邮件至 [email protected],立即清除相关链接

GMT+8, 2021-4-16 09:23 , Processed in 0.161408 second(s), 22 queries .

Powered by Discuz! X3.2

© 2001-2013 Comsenz Inc.

快速回复 返回顶部 返回列表