磁力链接吧

 找回密码
 立即注册
搜索

蹂躏 Swing.Low.2019.1080p.BluRay.x264-GUACAMOLE 8.24GB

[复制链接]
百度云资源 发表于 2021-3-6 22:37:53 | 显示全部楼层 |阅读模式
-->
帖子完整标题:蹂躏 Swing.Low.2019.1080p.BluRay.x264-GUACAMOLE 8.24GB


[/url]

◎译  名 蹂躏/Swing Low
◎片  名 Ravage
◎年  代 2019
◎产  地 美国
◎类  别 惊悚
◎语  言 英语
◎上映日期 
◎IMDb评分  4.9/10 from 877 users
◎  
◎豆瓣评分 /10 from 0 users
◎ 
◎片  长 84分钟
◎主  演 布鲁斯·邓恩 Bruce Dern
       安娜贝尔·德克斯特-琼斯 Annabelle Dexter-Jones
       埃里克·尼尔森 Eric Nelsen
       罗伯特·朗斯特里特 Robert Longstreet
       罗斯·帕特里奇 Ross Partridge
       迈克尔·韦弗 Michael Weaver

◎标  签 美国 | 惊悚 | 2019 | 犯罪 | 欧美小妞 | 性奴,反转 | 动作 | [歐美]

◎简  介

  When a nature photographer explains to the Police how she fought her way out of the Watchatoomy Valley, they dismiss her crazed and violent story as a meth-induced nightmare. But when they discover that she's telling the truth, it's too late.
Video
ID                                       : 1
Format                                   : AVC
Format/Info                              : Advanced Video Codec
Format profile                           :
Format settings                          : CABAC / 5 Ref Frames
Format settings, CABAC                   : Yes
Format settings, Reference frames        : 5 frames
Codec ID                                 : V_MPEG4/ISO/AVC
Duration                                 : 1 h 24 min
Bit rate                                 : 12.4 Mb/s
Width                                    : 1 920 pixels
Height                                   : 804 pixels
Display aspect ratio                     : 2.40:1
Frame rate mode                          : Constant
Frame rate                               : 23.976 (24000/1001/189150) FPS
Color space                              : YUV
Chroma subsampling                       : 4:2:0
Bit depth                                : 8 bits
Scan type                                : Progressive
Bits/(Pixel*Frame)                       : 0.335
Stream size                              : 7.29 GiB (88%)
Writing library                          : x264 core 161 r3048 b86ae3c
Encoding settings                        : cabac=1 / ref=5 / deblock=1:-3:-3 / analyse=0x3:0x133 / me=umh / subme=9 / psy=1 / psy_rd=1.00:0.00 / mixed_ref=1 / me_range=16 / chroma_me=1 / trellis=2 / 8x8dct=1 / cqm=0 / deadzone=21,11 / fast_pskip=0 / chroma_qp_offset=-2 / threads=24 / lookahead_threads=2 / sliced_threads=0 / nr=0 / decimate=1 / interlaced=0 / bluray_compat=0 / constrained_intra=0 / bframes=3 / b_pyramid=2 / b_adapt=2 / b_bias=0 / direct=3 / weightb=1 / open_gop=0 / weightp=2 / keyint=250 / keyint_min=23 / scenecut=40 / intra_refresh=0 / rc_lookahead=60 / rc=crf / mbtree=1 / crf=17.0 / qcomp=0.60 / qpmin=0 / qpmax=69 / qpstep=4 / ip_ratio=1.40 / aq=3:1.00
Default                                  : Yes
Forced                                   : No
Color range                              : Limited
Matrix coefficients                      : BT.709

Audio
ID                                       : 2
Format                                   : DTS XLL
Format/Info                              : Digital Theater Systems
Commercial name                          : DTS-HD Master Audio
Codec ID                                 : A_DTS
Duration                                 : 1 h 24 min
Bit rate mode                            : Variable
Bit rate                                 : 1 616 kb/s
Channel(s)                               : 6 channels
Channel layout                           : C L R Ls Rs LFE
Sampling rate                            : 48.0 kHz
Frame rate                               : 93.750 FPS (512 SPF)
Bit depth                                : 16 bits
Compression mode                         : Lossless
Stream size                              : 972 MiB (12%)
Language                                 : English
Default                                  : Yes
Forced                                   : No

Text #1
ID                                       : 3
Format                                   : PGS
Muxing mode                              : zlib
Codec ID                                 : S_HDMV/PGS
Codec ID/Info                            : Picture based subtitle format used on BDs/HD-DVDs
Duration                                 : 1 h 18 min
Bit rate                                 : 13.8 kb/s
Count of elements                        : 834
Stream size                              : 7.69 MiB (0%)
Title                                    : Vobsubs
Language                                 : German
Default                                  : No
Forced                                   : No

Text #2
ID                                       : 4
Format                                   : PGS
Muxing mode                              : zlib
Codec ID                                 : S_HDMV/PGS
Codec ID/Info                            : Picture based subtitle format used on BDs/HD-DVDs
Duration                                 : 9 min 29 s
Bit rate                                 : 415 b/s
Count of elements                        : 7
Stream size                              : 28.9 KiB (0%)
Title                                    : Forced
Language                                 : German
Default                                  : No
Forced                                   : No

Menu
00:00:00.000                             : en:00:00:00.000
00:08:22.293                             : en:00:08:22.293
00:14:56.687                             : en:00:14:56.687
00:24:21.543                             : en:00:24:21.543
00:29:32.938                             : en:00:29:32.938
00:37:04.222                             : en:00:37:04.222
00:43:51.879                             : en:00:43:51.879
00:49:50.779                             : en:00:49:50.779
00:59:47.292                             : en:00:59:47.292
01:03:14.624                             : en:01:03:14.624
01:07:10.151                             : en:01:07:10.151
01:20:45.883                             : en:01:20:45.883
[/url]



                                                                                                                                                                                                        
                                                                                                                                                                                                                                                                                                                                                                                                                                                                                                                                                                                                                                                                                                                                                                                                                                                        
b66ab69c89a746b4d027482b82d8ca22.zip (41.91 KB, 下载次数: 13)

回复

使用道具 举报

小黑屋|磁力链接吧 |网站地图

本网站所有资源来自网络,如无意中侵犯了您的权益,请发邮件至 [email protected],立即清除相关链接

GMT+8, 2021-4-19 20:35 , Processed in 0.111951 second(s), 22 queries .

Powered by Discuz! X3.2

© 2001-2013 Comsenz Inc.

快速回复 返回顶部 返回列表